<?xml version="1.0" standalone="no"?>
<!DOCTYPE svg PUBLIC "-//W3C//DTD SVG 1.1//EN" "http://www.w3.org/Graphics/SVG/1.1/DTD/svg11.dtd" >
<svg xmlns="http://www.w3.org/2000/svg">
<metadata>Generated by IcoMoon</metadata>
<defs>
<font id="rize-icons" horiz-adv-x="1024">
<font-face units-per-em="1024" ascent="960" descent="-64" />
<missing-glyph horiz-adv-x="1024" />
<glyph unicode="&#x20;" horiz-adv-x="512" d="" />
<glyph unicode="&#xe900;" glyph-name="fi-sc-star" horiz-adv-x="1088" d="M1004.333 582.429c-19.84 53.674-66.304 85.29-122.285 82.986-42.752-1.365-85.542-2.517-128.256-3.37-18.982-1.622-36.947 12.117-42.835 31.061-12.672 40.96-25.389 81.877-38.317 122.752-17.408 55.509-67.881 91.392-128.553 91.392s-111.146-35.883-128.554-91.349c-12.971-40.875-25.686-81.792-38.315-122.752-5.888-18.987-23.040-32.811-42.837-31.104-42.752 0.853-85.547 1.962-127.83 3.328-55.936 2.218-102.997-29.355-122.794-82.987-21.632-58.539-3.456-123.435 45.482-161.664 34.646-26.581 68.992-52.523 103.296-78.123 16.299-12.16 22.571-33.921 15.659-54.189-14.251-41.766-29.141-83.712-44.544-125.696-20.992-55.507-6.059-113.363 38.059-147.328 46.506-35.878 112.426-35.328 164.138 1.536l109.142 78.381c17.664 12.627 40.533 12.672 58.24 0l109.312-78.509c26.157-18.598 55.981-27.942 85.075-27.942 28.333 0 55.981 8.832 78.893 26.496 44.077 33.958 59.008 91.814 38.189 146.982-15.578 42.33-30.381 84.314-44.672 126.042-6.957 20.224-0.64 41.983 15.616 54.143 34.342 25.643 68.736 51.584 103.635 78.379 48.64 38.016 66.816 102.912 45.184 161.45l-0.128 0.086z" />
<glyph unicode="&#xe901;" glyph-name="d" d="M934.396 198.409c0 1.6 1.6 1.6 1.6 3.2 1.6 3.2 1.6 6.4 1.6 9.6v473.6c0 12.8-8 25.6-19.2 32l-388.8 211.2c-1.6 0-3.2 0-4.8 1.6-1.6 0-3.2 1.6-4.8 1.6s-3.2 0-4.8 0c-1.6 0-3.2 0-4.8 0s-3.2 0-4.8 0c-1.6 0-3.2 0-4.8 0s-3.2-1.6-4.8-1.6c1.6-1.6 0-1.6-1.6-1.6l-388.8-211.2c-11.2-6.4-19.2-19.2-19.2-32v-473.6c0-3.2 0-6.4 1.6-9.6 0-1.6 1.6-1.6 1.6-3.2s1.6-3.2 3.2-6.4c0-1.6 1.6-1.6 1.6-3.2 1.6-1.6 1.6-3.2 3.2-4.8s1.6-1.6 3.2-3.2 1.6-1.6 3.2-3.2l390.4-209.6c4.8-3.2 11.2-4.8 17.6-4.8s11.2 1.6 17.6 4.8l388.8 211.2c1.6 1.6 3.2 1.6 3.2 3.2 1.6 1.6 1.6 1.6 3.2 3.2s3.2 3.2 3.2 4.8c0 1.6 1.6 1.6 1.6 3.2 3.2 1.6 4.8 3.2 4.8 4.8zM865.596 272.009l-316.8 172.8v390.4l316.8-172.8v-390.4zM158.396 662.409l318.4 172.8v-392l-318.4-171.2v390.4zM511.996 41.609l-313.6 169.6 313.6 169.6 313.6-169.6-313.6-169.6z" />
<glyph unicode="&#xe902;" glyph-name="g-sim" d="M743.996 931.208h-310.4c-28.8 0-56-11.2-75.2-32l-153.6-156.8c-19.2-19.2-30.4-46.4-30.4-73.6v-600c0-57.6 48-105.6 105.6-105.6h464c57.6 0 105.6 48 105.6 105.6v758.4c0 57.6-48 104-105.6 104zM777.596 68.809c0-17.6-14.4-33.6-33.6-33.6h-464c-17.6 0-33.6 14.4-33.6 33.6v601.6c0 8 3.2 17.6 9.6 24l153.6 156.8c6.4 6.4 14.4 9.6 24 9.6h310.4c17.6 0 33.6-14.4 33.6-33.6v-758.4zM467.191 427.191c19.2 0 36.8 16 36.8 36.8s-16 36.8-36.8 36.8h-97.6c-36.8 0-67.2-30.4-67.2-67.2v-59.2c0-36.8 30.4-67.2 67.2-67.2h60.8v-48h-92.8c-19.2 0-36.8-16-36.8-36.8s16-36.8 36.8-36.8h97.6c36.8 0 67.2 30.4 67.2 67.2v59.2c0 36.8-30.4 67.2-67.2 67.2h-60.8v48h92.8zM712 427.191c19.2 0 36.8 16 36.8 36.8s-16 36.8-36.8 36.8h-97.6c-36.8 0-67.2-30.4-67.2-67.2v-179.2c0-36.8 30.4-67.2 67.2-67.2h65.6c36.8 0 67.2 30.4 67.2 67.2v57.6c0 28.8-22.4 51.2-51.2 51.2h-9.6c-19.2 0-36.8-16-36.8-36.8 0-16 11.2-30.4 25.6-35.2v-33.6h-56v169.6h92.8z" />
<glyph unicode="&#xe903;" glyph-name="px" d="M569.613 835.167c-59.2 0-120-12.8-166.4-32-4.8-1.6-6.4-6.4-6.4-11.2s1.6-11.2 4.8-20.8c1.6-6.4 11.2-27.2 25.6-20.8 48 17.6 97.6 27.2 144 27.2 51.2 0 104-11.2 153.6-32 38.4-17.6 75.2-40 115.2-75.2 1.6-1.6 6.4-1.6 9.6-1.6 6.4 0 16 6.4 22.4 12.8 11.2 12.8 17.6 22.4 6.4 32-38.4 36.8-78.4 62.4-131.2 83.2-57.6 27.2-116.8 38.4-177.6 38.4zM260.773 289.583c0 0 4.8-16 6.4-22.4 17.6-38.4 40-72 70.4-104 28.8-28.8 65.6-51.2 104.001-70.4 40-17.6 81.6-24 126.4-24s86.4 9.6 126.4 24c38.4 17.6 72 40 104 70.4 28.8 28.8 51.2 65.6 70.4 104 17.6 40 24 81.6 24 126.4s-9.6 88-24 126.4c-17.6 38.4-40 72-70.4 104-28.8 28.8-65.6 51.2-104 70.4-40 17.6-81.6 25.6-126.4 25.6s-88-9.6-128-25.6c-32.001-12.8-86.401-48-116.801-81.6v268.8h448.001c17.6 0 17.6 22.4 17.6 32s0 32-17.6 32l-484.801-3.2c-12.8 0-22.4-11.2-22.4-22.4v-376c0-11.2 16-20.8 28.8-22.4 27.2-6.4 33.6 1.6 40 11.2l1.6 1.6c11.2 16 43.2 48 43.2 48 49.601 49.6 116.801 76.8 187.201 76.8s137.6-27.2 187.2-76.8c49.6-49.6 76.8-116.8 76.8-187.2s-27.2-139.2-76.8-188.8c-49.6-49.6-116.8-76.8-188.8-76.8-48 0-94.4 11.2-132.8 38.4v228.8c0 32 12.8 62.4 36.8 88 25.6 27.2 60.8 44.8 97.6 44.8s72-12.8 97.6-38.4c24-25.6 38.4-59.2 38.4-94.4 0-76.8-60.8-136-136-136-16 0-43.2 6.4-43.2 6.4-16 4.8-22.4-17.6-24-22.4-6.4-27.2 4.8-32 6.4-33.6 25.6-6.4 40-9.6 62.4-9.6 108.8 0 196.8 88 196.8 196.8 0 105.6-88 196.8-196.8 196.8-51.2 0-100.8-20.8-139.2-56-36.801-36.8-56.001-81.6-56.001-128v-1.6c0-6.4 0-142.4 0-187.2-20.8 22.4-40 56-54.4 92.8-4.8 12.8-17.6 11.2-32 6.4-8-9.6-28.8-16-24-32zM883.2 118.374c-6.4 6.4-11.2 11.2-17.6 11.2-4.8 1.6-9.6 0-12.8-1.6l-1.6-1.6c-36.8-36.8-76.8-65.6-124.8-83.2-48-20.8-99.2-32-153.6-32-51.2 0-104 11.2-153.6 32-48 20.8-88 48-124.8 83.2-36.8 38.4-65.6 78.4-83.2 124.8-17.6 43.2-22.4 76.8-25.6 88 0 1.6 0 1.6 0 1.6-1.6 11.2-12.8 12.8-32 11.2-4.8-3.2-25.6-4.8-25.6-20.8 6.4-36.8 16-72 28.8-104 22.4-54.4 56-100.8 97.6-142.4 43.2-43.2 89.6-73.6 142.4-97.6 56-22.4 115.2-36.8 176-36.8s120 11.2 176 36.8c54.4 22.4 100.8 56 142.4 97.6l1.6 1.6c3.2 4.8 8 12.8-9.6 32zM491.187 344.034c0-6.4 6.4-11.2 9.6-16l1.6-1.6c6.4-6.4 11.2-9.6 17.6-9.6s6.4 1.6 6.4 1.6c1.6 1.6 33.6 33.6 36.8 36.8l33.6-33.6c1.6-1.6 6.4-4.8 11.2-6.4 6.4 0 11.2 1.6 17.6 9.6 16 16 6.4 22.4 1.6 27.2l-33.6 33.6 36.8 38.4c6.4 9.6 1.6 17.6-6.4 24-11.2 11.2-20.8 11.2-27.2 6.4l-36.8-32-33.6 36.8c-1.6 1.6-4.8 1.6-6.4 1.6-4.8 0-11.2-1.6-17.6-9.6-11.2-11.2-12.8-17.6-6.4-25.6l36.8-36.8-33.6-38.4c-6.4 0-8-3.2-8-6.4z" />
<glyph unicode="&#xe904;" glyph-name="achievement" d="M756.804 230.451c78.4 0 142.4 64 142.4 142.4s-64 142.4-142.4 142.4c-78.4 0-142.4-64-142.4-142.4s64-142.4 142.4-142.4zM756.804 441.651c38.4 0 70.4-32 70.4-70.4s-32-70.4-70.4-70.4c-38.4 0-70.4 32-70.4 70.4s32 70.4 70.4 70.4zM985.604 92.868c-57.6 59.2-140.8 92.8-225.6 92.8s-168-33.6-225.6-92.8c-14.4-14.4-14.4-36.8 0-51.2s36.8-14.4 51.2 0c44.8 44.8 108.8 72 174.4 72 67.2 0 129.6-25.6 174.4-72 6.4-6.4 16-11.2 25.6-11.2s17.6 3.2 25.6 9.6c14.4 16 14.4 40 0 52.8zM483.2 688.033c11.2 17.6 12.8 38.4 3.2 57.6s-28.8 30.4-49.6 30.4h-335.998v56c0 19.2-16 36.8-36.8 36.8s-35.2-16-35.2-36.8v-767.999c0-19.2 16-36.8 36.8-36.8s36.8 16 36.8 36.8v374.4h337.598c20.8 0 40 11.2 49.6 30.4s8 40-3.2 57.6l-48 67.199c-4.8 8-4.8 19.2 0 27.2l44.8 67.2zM376.002 552.033l28.8-41.599h-304v193.599h305.6l-28.8-41.6c-24-33.6-24-76.8-1.6-110.4z" />
<glyph unicode="&#xe905;" glyph-name="add-anchor-point" d="M99.2 745.567h78.4v-78.4c0-19.2 16-35.2 35.2-35.2s35.2 16 35.2 35.2v78.4h78.4c19.2 0 35.2 16 35.2 35.2s-16 35.2-35.2 35.2h-78.4v80c0 19.2-16 35.2-35.2 35.2s-35.2-16-35.2-35.2v-78.4h-78.4c-19.2 0-35.2-16-35.2-35.2s16-36.8 35.2-36.8zM940.8 627.133l-219.2 219.2c-16 16-36.8 24-59.2 24s-43.2-8-59.2-24l-30.4-30.4c-16-16-24-36.8-24-59.2s8-43.2 24-59.2l4.8-4.8-331.201-153.6c-22.4-11.202-38.4-28.802-46.4-52.802l-137.6-406.4c-11.2-32-3.2-65.6 20.8-89.6 17.6-17.6 38.4-25.6 62.4-25.6 9.6 0 19.2 1.6 28.8 4.8l408.001 136c22.4 8 41.6 24 51.2 46.4l153.6 331.2 4.8-4.8c16-16 36.8-24 59.2-24s43.2 8 59.2 24l30.4 30.4c16 16 24 36.802 24 59.202s-8 43.2-24 59.2zM568 182.332c-1.6-3.2-4.8-6.4-9.6-8l-360.001-120 161.6 161.6c14.4-8 32-11.2 49.6-11.2 62.401 0 115.201 51.2 115.201 115.2s-51.2 112-115.201 112c-64 0-115.2-51.2-115.2-115.2 0-19.2 4.8-36.8 12.8-52.8l-160-161.6 121.6 361.6c1.6 4.8 4.8 8 8 9.6l353.601 164.802 102.4-102.4-164.8-353.602zM367.999 318.332c0 24 19.2 43.2 43.2 43.2s43.201-19.2 43.201-43.2c0-24-19.2-43.2-43.201-43.2s-43.2 19.2-43.2 43.2zM889.6 558.333l-30.4-30.402c-3.2-3.2-6.4-3.2-8-3.2s-4.8 0-8 3.2l-220.8 219.202c-3.2 3.2-3.2 6.4-3.2 8s0 4.8 3.2 8l30.4 30.4c3.2 3.2 6.4 3.2 8 3.2s4.8 0 8-3.2l220.8-217.6c3.2-3.2 3.2-6.4 3.2-8 0-3.2 0-6.4-3.2-9.6z" />
<glyph unicode="&#xe906;" glyph-name="add-file" d="M915.209 140.732h-68.8v68.8c0 19.2-16 36.8-36.8 36.8s-36.8-16-36.8-36.8v-68.8h-68.8c-19.2 0-36.8-16-36.8-36.8s16-36.8 36.8-36.8h68.8v-67.2c0-19.2 16-36.8 36.8-36.8s36.8 16 36.8 36.8v68.8h68.8c19.2 0 36.8 16 36.8 36.8s-17.6 35.2-36.8 35.2zM619.204 35.166h-446.4c-16 0-28.8 12.8-28.8 28.8v768.001c0 16 12.8 28.8 28.8 28.8h361.6v-204.8c0-19.2 16-36.8 36.8-36.8h203.2v-299.201c0-19.2 16-36.8 36.8-36.8s36.8 16 36.8 36.8v326.401c0 17.6-8 35.2-20.8 48l-222.4 217.6c-12.8 12.8-30.4 19.2-48 19.2h-384c-54.4 0-99.2-44.8-99.2-99.2v-768.001c0-54.4 44.8-100.8 100.8-100.8h446.4c19.2 0 36.8 16 36.8 36.8s-17.6 35.2-38.4 35.2zM606.404 809.567l120-118.4h-120v118.4z" />
<glyph unicode="&#xe907;" glyph-name="add-files" d="M617.596 606.4h-68.8v68.8c0 19.2-16 36.8-36.8 36.8-19.2 0-36.8-16-36.8-36.8v-68.8h-68.802c-19.2 0-36.8-16-36.8-36.8s16-36.8 36.8-36.8h68.802v-68.8c0-19.2 16-36.8 36.8-36.8 19.2 0 36.8 16 36.8 36.8v68.8h68.8c19.2 0 36.8 16 36.8 36.8s-17.6 36.8-36.8 36.8zM799.996 931.167h-576c-54.4 0-97.6-43.2-97.6-97.6v-513.601c0-24 9.6-46.4 27.2-62.4l288-272c16-16 36.8-24 59.2-24h299.2c54.4 0 97.6 43.2 97.6 97.6v774.401c0 54.4-43.2 97.6-97.6 97.6zM251.196 265.566h187.2c8 0 14.4-6.4 14.4-12.8v-176l-201.6 188.8zM825.596 62.366c0-14.4-11.2-25.6-25.6-25.6h-275.2v216c0 46.4-38.4 84.8-86.4 84.8h-240v496.001c0 14.4 11.2 25.6 25.6 25.6h576c14.4 0 25.6-11.2 25.6-25.6v-771.201z" />
<glyph unicode="&#xe908;" glyph-name="add-group" d="M592 264.051h-6.4v6.4c0 19.2-16 36.8-36.8 36.8s-36.8-16-36.8-36.8v-6.4h-6.4c-19.2 0-36.8-16-36.8-36.8s16-36.8 36.8-36.8h6.4v-6.4c0-19.2 16-36.8 36.8-36.8s36.8 16 36.8 36.8v8h6.4c19.2 0 36.8 16 36.8 36.8s-17.6 35.2-36.8 35.2zM910.404 478.434c-33.6 38.4-73.6 67.199-116.804 84.799 43.204 30.4 72 80 72 137.6 0 92.8-75.2 168-168 168s-168-75.2-168-168c0-56 28.8-107.2 72-137.6-44.8-17.6-84.8-44.799-116.8-84.799-3.2-4.8-6.396-8-9.596-12.8-16 11.2-33.604 19.2-51.202 27.2 43.202 30.4 71.998 79.999 71.998 137.599 0 92.8-75.198 168-167.998 168s-168-76.8-168-169.6c0-57.6 28.8-107.199 72-137.599-44.8-17.6-84.8-44.8-116.8-84.8-54.4-64-84.8-152-86.4-248 0-14.4 8-27.2 19.2-33.6 33.6-16 152-70.4 278.4-70.4 35.2 0 72 3.2 108.802 11.2 32-24 70.396-36.8 113.596-36.8 72 0 134.404 40 166.404 97.6 128 4.8 230.396 54.4 260.8 70.4 11.2 6.4 19.2 19.2 19.2 32 0 96-32 185.6-84.8 249.6zM697.6 795.233c52.8 0 96-43.2 96-96s-43.2-96-96-96c-52.8 0-96 43.2-96 96s43.2 96 96 96zM326.402 724.833c52.8 0 96-43.2 96-96s-43.2-95.999-96-95.999c-52.8 0-96 43.199-96 95.999s43.2 96 96 96zM100.802 180.834c4.8 70.4 28.8 134.4 68.8 180.8 41.6 49.6 97.6 76.8 158.4 76.8 48 0 92.8-17.6 129.598-48-59.198-33.6-99.198-96-99.198-168 0-33.6 8-64 22.4-91.2-19.2-3.2-36.8-3.2-54.4-3.2-91.2 0-180.8 32-225.6 52.8zM548.8 100.834c-65.6 0-120 54.4-120 120s54.4 120 120 120c65.604 0 120-54.4 120-120 1.604-65.6-52.8-120-120-120zM740.804 200.034c0 6.4 1.6 14.4 1.6 20.8 0 105.6-86.4 192-192 192-4.8 0-9.604 0-14.404 0-1.596 1.6-3.196 3.2-4.796 6.4 3.2 4.8 6.396 8 9.596 12.8 41.604 49.6 97.604 76.8 158.404 76.8s116.796-27.2 158.396-76.8c40-46.4 62.404-110.4 68.804-180.8-38.4-17.6-105.6-43.2-185.6-51.2z" />
<glyph unicode="&#xe909;" glyph-name="add-group-alt" d="M953.6 510.434c-17.6 20.8-38.4 38.399-62.4 49.599 22.4 22.4 35.2 52.8 35.2 86.4 0 67.2-54.4 121.6-121.6 121.6s-121.6-54.4-121.6-121.6c0-33.6 14.4-64 35.2-86.4-19.2-9.6-35.2-22.4-51.2-38.399-19.2 19.199-41.6 35.199-67.2 46.399 30.4 25.6 49.6 64 49.6 105.6 0 76.8-62.4 139.2-139.2 139.2s-139.2-62.4-139.2-139.2c0-43.2 19.2-80 49.6-105.6-24-11.2-46.4-25.6-67.2-46.399-16 15.999-32 28.799-51.2 38.399 22.4 22.4 35.2 52.8 35.2 86.4 0 67.2-54.4 121.6-121.6 121.6s-121.6-54.4-121.6-121.6c0-33.6 14.4-64 35.2-86.4-22.4-11.2-44.8-28.799-62.4-49.599-36.8-43.2-57.6-104-59.2-169.6 0-14.4 8-27.2 19.2-32 22.4-11.2 100.8-48 187.2-48 24 0 49.6 3.2 73.6 8 9.6-4.8 22.4-11.2 40-17.6 9.6-94.4 88-169.6 184-169.6 94.4 0 172.8 75.2 179.2 168 19.2 8 33.6 14.4 41.6 19.2 25.6-4.8 49.6-8 73.6-8 92.8 0 168 36.8 187.2 48 11.2 6.4 19.2 19.2 19.2 32-1.6 65.6-22.4 126.4-59.2 169.6zM804.8 696.033c27.2 0 49.6-22.4 49.6-49.6s-22.4-49.6-49.6-49.6c-27.2 0-49.6 22.4-49.6 49.6 1.6 27.2 22.4 49.6 49.6 49.6zM512 742.433c36.8 0 67.2-30.4 67.2-67.2s-30.4-67.2-67.2-67.2c-36.8 0-67.2 30.4-67.2 67.2s30.4 67.2 67.2 67.2zM219.2 696.033c27.2 0 49.6-22.4 49.6-49.6s-22.4-49.6-49.6-49.6c-27.2 0-49.6 22.4-49.6 49.6s22.4 49.6 49.6 49.6zM84.8 363.234c4.8 40 19.2 75.2 40 100.8 24 28.8 57.6 44.8 92.8 44.8s67.2-16 92.8-44.8c-20.8-36.8-35.2-80-40-126.4-17.6-3.2-35.2-4.8-52.8-4.8-51.2 0-104 17.6-132.8 30.4zM512 153.634c-59.2 0-107.2 48-107.2 107.2s48 107.2 107.2 107.2c59.2 0 107.2-48 107.2-107.2s-48-107.2-107.2-107.2zM512 440.034c-76.8 0-140.8-48-166.4-115.2-1.6 0-1.6 1.6-3.2 1.6 4.8 46.4 17.6 86.4 41.6 120 3.2 4.8 6.4 8 9.6 12.8 32 36.8 73.6 57.6 118.4 57.6s88-20.8 118.4-57.6c3.2-4.8 6.4-8 9.6-12.8s6.4-9.6 8-14.4c1.6-1.6 1.6-3.2 3.2-4.8 1.6-3.2 3.2-6.4 4.8-9.6 1.6-1.6 1.6-3.2 3.2-6.4s3.2-6.4 4.8-9.6c1.6-1.6 1.6-4.8 3.2-6.4 1.6-3.2 1.6-6.4 3.2-9.6 0-1.6 1.6-4.8 1.6-6.4 1.6-3.2 1.6-6.4 3.2-9.6 0-1.6 1.6-4.8 1.6-6.4 0-3.2 1.6-8 1.6-11.2 0-1.6 1.6-4.8 1.6-6.4 0-4.8 1.6-8 1.6-12.8 0-1.6 0-3.2 0-4.8v-1.6c-1.6 0-1.6-1.6-3.2-1.6-24 65.6-89.6 115.2-166.4 115.2zM804.8 332.834c-16 0-33.6 1.6-52.8 4.8 0 1.6 0 1.6 0 3.2-1.6 9.6-3.2 17.6-4.8 27.2 0 3.2-1.6 4.8-1.6 8-1.6 9.6-4.8 19.2-8 28.8s-6.4 19.2-11.2 27.2c-1.6 1.6-1.6 4.8-3.2 6.4-3.2 8-8 16-11.2 22.4 0 1.6-1.6 1.6-1.6 3.2 24 28.8 57.6 44.8 92.8 44.8s68.8-16 92.8-44.8c22.4-27.2 36.8-62.4 40-102.4-24-11.2-73.6-28.8-131.2-28.8zM550.4 296h-3.2v3.2c0 19.2-16 36.8-36.8 36.8-19.2 0-36.8-16-36.8-36.8v-3.2h-3.2c-19.2 0-36.8-16-36.8-36.8s16-36.8 36.8-36.8h3.2v-3.2c0-19.2 16-36.8 36.8-36.8 19.2 0 36.8 16 36.8 36.8v4.8h3.2c19.2 0 36.8 16 36.8 36.8s-17.6 35.2-36.8 35.2z" />
<glyph unicode="&#xe90a;" glyph-name="add-notification" d="M756.8 908.833c-105.6 0-195.2-68.8-227.2-164.8-35.2 17.6-72 27.2-110.4 32v57.6c0 19.2-16 35.2-35.2 35.2s-35.2-16-35.2-35.2v-57.6c-1.6 0-1.6 0-3.2 0-158.4-17.6-278.4-145.6-278.4-297.599v-275.2c-1.6-12.8-4.8-19.2-6.4-22.4l-25.6-43.2c-9.6-14.4-11.2-33.6-1.6-48l1.6-1.6c9.6-14.4 24-22.4 41.6-22.4h272v-43.2c0-19.2 16-35.2 35.2-35.2s35.2 16 35.2 35.2v43.2h273.6c17.6 0 32 8 40 22.4 9.6 16 9.6 35.2 0 51.2l-27.2 41.6c-4.8 8-6.4 14.4-6.4 22.4v236.8c17.6-4.8 36.8-6.4 56-6.4 131.2 0 238.4 107.199 238.4 238.399s-104 236.8-236.8 236.8zM646.4 142.434l3.2-3.2h-531.2l4.8 8c8 12.8 12.8 28.8 16 49.6v281.6c0 115.199 92.8 212.799 214.4 225.599 59.2 6.4 116.8-6.4 166.4-35.2 0-83.2 44.8-156.799 110.4-198.399v-267.2c-1.6-22.4 4.8-41.6 16-60.8zM756.8 504.034c-91.2 0-166.4 75.199-166.4 166.399s75.2 166.4 166.4 166.4c91.2 0 166.4-75.2 166.4-166.4s-73.6-166.399-166.4-166.399zM816 707.233h-22.4v22.4c0 19.2-16 35.2-35.2 35.2s-35.2-16-35.2-35.2v-22.4h-22.4c-19.2 0-35.2-16-35.2-35.2s16-35.2 35.2-35.2h22.4v-22.4c0-19.2 16-35.2 35.2-35.2s35.2 16 35.2 35.2v22.4h22.4c19.2 0 35.2 16 35.2 35.2s-16 35.2-35.2 35.2z" />
<glyph unicode="&#xe90b;" glyph-name="add-user" d="M723.2 438.366c-8 0-16 0-22.4-1.6-46.4 52.8-102.4 91.2-164.8 110.401 62.4 35.2 105.6 102.4 105.6 179.2 0 113.6-92.8 204.8-204.8 204.8-113.599 0-204.799-92.8-204.799-204.8 0-76.8 43.2-144 105.6-179.2-62.4-19.201-120-57.601-166.4-112.001-67.2-80-105.6-192-108.8-313.6 0-14.4 8-27.2 19.2-33.6 43.2-20.8 193.6-89.6 355.199-89.6 46.4 0 94.4 4.8 142.4 14.4 40-30.4 89.6-49.6 144-49.6 131.2 0 236.8 107.2 236.8 236.8s-105.6 238.4-236.8 238.4zM436.8 859.167c73.6 0 132.8-59.2 132.8-132.8s-59.2-132.8-132.8-132.8c-73.599 0-132.799 59.2-132.799 132.8s59.2 132.8 132.799 132.8zM136.001 142.366c6.4 96 38.4 182.4 91.2 246.4 56 65.6 131.2 102.4 211.199 102.4 68.8 0 132.8-27.2 185.6-75.2-80-38.4-136-120-136-214.4 0-46.4 12.8-88 36.8-124.8-28.8-3.2-57.6-6.4-84.8-6.4-127.999 0-249.599 46.4-303.999 72zM723.2 35.166c-91.2 0-164.8 73.6-164.8 164.8s73.6 164.8 164.8 164.8c91.2 0 164.8-73.6 164.8-164.8s-73.6-164.8-164.8-164.8zM777.6 246.349h-17.6v17.6c0 19.2-16 36.8-36.8 36.8s-36.8-16-36.8-36.8v-17.6h-17.6c-19.2 0-36.8-16-36.8-36.8s16-36.8 36.8-36.8h19.2v-17.6c0-19.2 16-36.8 36.8-36.8s36.8 16 36.8 36.8v17.6h17.6c19.2 0 36.8 16 36.8 36.8s-17.6 36.8-38.4 36.8z" />
<glyph unicode="&#xe90c;" glyph-name="add-user-alt" d="M336 387.166c88 0 160 72 160 160.001s-72 160-160 160c-88 0-160-72-160-160s72-160.001 160-160.001zM336 635.167c48 0 88-40 88-88s-40-88.001-88-88.001c-48 0-88 40-88 88.001s40 88 88 88zM336.001 360c-108.8 0-214.4-38.4-296-107.2-14.4-12.8-17.6-35.2-4.8-51.2 12.8-14.4 35.2-17.6 51.2-4.8 68.8 59.2 158.4 91.2 249.6 91.2s180.799-32 249.599-91.2c6.4-6.4 14.4-8 24-8s20.8 4.8 27.2 12.8c12.8 14.4 11.2 38.4-4.8 51.2-81.6 68.8-187.2 107.2-295.999 107.2zM960 375.966h-46.4v46.4c0 19.2-16 36.8-36.8 36.8s-36.8-16-36.8-36.8v-46.4h-46.4c-19.2 0-36.8-16-36.8-36.8s16-36.8 36.8-36.8h46.4v-46.4c0-19.2 16-36.8 36.8-36.8s36.8 16 36.8 36.8v48h46.4c19.2 0 36.8 16 36.8 36.8s-17.6 35.2-36.8 35.2z" />
<glyph unicode="&#xe90d;" glyph-name="adobe" d="M640 862.417h368v-825.6l-368 825.6zM384 862.417h-368v-825.6l368 825.6zM512 553.617l230.4-521.6h-155.2l-67.2 166.4h-169.6l161.6 355.2z" />
<glyph unicode="&#xe90e;" glyph-name="agenda" d="M736 931.167h-448.002c-54.4 0-100.8-44.8-100.8-100.8v-696.001c0-43.2 28.8-80 67.2-94.4v-40c0-19.2 16-36.8 36.8-36.8s36.8 16 36.8 36.8v36.8h408.002c54.4 0 100.8 44.8 100.8 100.8v694.401c0 54.4-44.8 99.2-100.8 99.2zM287.998 108.766c-16 0-28.8 12.8-28.8 28.8v187.2h323.202v-216h-294.402zM259.198 396.766v216.001h323.202v-216.001h-323.202zM654.4 612.767h110.4v-216.001h-110.4v216.001zM764.8 831.967v-147.2h-110.4v174.4h81.6c16 0 28.8-11.2 28.8-27.2zM287.998 859.167h294.402v-174.4h-323.202v147.2c0 16 12.8 27.2 28.8 27.2zM736 108.766h-81.6v216h110.4v-188.8c0-16-12.8-27.2-28.8-27.2z" />
<glyph unicode="&#xe90f;" glyph-name="ai" d="M822.404 788.767l-187.2 128c-14.4 9.6-30.404 14.4-48 14.4h-324.802c-54.4 0-97.6-43.2-97.6-97.6v-772.801c0-54.4 43.2-97.6 97.6-97.6h499.198c54.4 0 97.604 43.2 97.604 97.6v657.601c0 28.8-14.4 54.4-36.8 70.4zM787.204 62.366c0-14.4-11.204-25.6-25.604-25.6h-499.198c-14.4 0-25.6 11.2-25.6 25.6v771.201c0 14.4 11.2 25.6 25.6 25.6h324.802c3.2 0 4.8-1.6 8-1.6l187.2-128c3.2-3.2 6.396-6.4 6.396-11.2v-656.001h-1.596zM467.204 503.983c-6.4 11.2-17.6 17.6-32 17.6s-25.6-6.4-32-17.6l-121.6-212.8c-9.6-17.6-3.2-40 12.8-49.6 17.6-9.6 40-3.2 49.6 12.8l24 43.2h131.2l24-43.2c6.4-11.2 19.2-17.6 32-17.6 6.4 0 12.8 1.6 17.6 4.8 17.6 9.6 24 32 12.8 49.6l-118.4 212.8zM411.204 369.583l24 43.2 24-43.2h-48zM672 412.749c-19.2 0-36.8-16-36.8-36.8v-104c0-19.2 16-36.8 36.8-36.8s36.8 16 36.8 36.8v104c-1.6 20.8-17.6 36.8-36.8 36.8zM691.2 500.749c-1.6 1.6-4.8 1.6-6.4 3.2s-4.8 1.6-6.4 1.6c-4.8 1.6-9.6 1.6-14.4 0-3.2 0-4.8-1.6-6.4-1.6s-4.8-1.6-6.4-3.2c-1.6-1.6-3.2-3.2-4.8-4.8s-3.2-3.2-4.8-4.8c-1.6-1.6-3.2-4.8-3.2-6.4-1.6-1.6-1.6-4.8-1.6-6.4s0-4.8 0-6.4c0-1.6 0-4.8 0-6.4s1.6-4.8 1.6-6.4c0-1.6 1.6-4.8 3.2-6.4s3.2-3.2 4.8-6.4c6.4-6.4 16-9.6 25.6-9.6 1.6 0 4.8 0 6.4 0 3.2 0 4.8 1.6 6.4 1.6s4.8 1.6 6.4 3.2c1.6 1.6 3.2 3.2 4.8 4.8s3.2 3.2 4.8 6.4c1.6 1.6 3.2 4.8 3.2 6.4 1.6 1.6 1.6 4.8 1.6 6.4s0 4.8 0 6.4c0 9.6-3.2 19.2-11.2 25.6 1.6 0-1.6 1.6-3.2 3.2z" />
<glyph unicode="&#xe910;" glyph-name="ai-1" d="M822.404 788.809l-187.2 128c-14.4 9.6-30.404 14.4-48 14.4h-324.802c-54.4 0-97.6-43.2-97.6-97.6v-772.8c0-54.4 43.2-97.6 97.6-97.6h499.198c54.4 0 97.604 43.2 97.604 97.6v657.6c0 28.8-14.4 54.4-36.8 70.4zM787.204 62.409c0-14.4-11.204-25.6-25.604-25.6h-499.198c-14.4 0-25.6 11.2-25.6 25.6v771.2c0 14.4 11.2 25.6 25.6 25.6h324.802c3.2 0 4.8-1.6 8-1.6l187.2-128c3.2-3.2 6.396-6.4 6.396-11.2v-656h-1.596zM467.204 504.026c-6.4 11.2-17.6 17.6-32 17.6s-25.6-6.4-32-17.6l-121.6-212.8c-9.6-17.6-3.2-40 12.8-49.6 17.6-9.6 40-3.2 49.6 12.8l24 43.2h131.2l24-43.2c6.4-11.2 19.2-17.6 32-17.6 6.4 0 12.8 1.6 17.6 4.8 17.6 9.6 24 32 12.8 49.6l-118.4 212.8zM411.204 369.626l24 43.2 24-43.2h-48zM672 412.791c-19.2 0-36.8-16-36.8-36.8v-104c0-19.2 16-36.8 36.8-36.8s36.8 16 36.8 36.8v104c-1.6 20.8-17.6 36.8-36.8 36.8zM691.2 500.791c-1.6 1.6-4.8 1.6-6.4 3.2s-4.8 1.6-6.4 1.6c-4.8 1.6-9.6 1.6-14.4 0-3.2 0-4.8-1.6-6.4-1.6s-4.8-1.6-6.4-3.2c-1.6-1.6-3.2-3.2-4.8-4.8s-3.2-3.2-4.8-4.8c-1.6-1.6-3.2-4.8-3.2-6.4-1.6-1.6-1.6-4.8-1.6-6.4s0-4.8 0-6.4c0-1.6 0-4.8 0-6.4s1.6-4.8 1.6-6.4c0-1.6 1.6-4.8 3.2-6.4s3.2-3.2 4.8-6.4c6.4-6.4 16-9.6 25.6-9.6 1.6 0 4.8 0 6.4 0 3.2 0 4.8 1.6 6.4 1.6s4.8 1.6 6.4 3.2c1.6 1.6 3.2 3.2 4.8 4.8s3.2 3.2 4.8 6.4c1.6 1.6 3.2 4.8 3.2 6.4 1.6 1.6 1.6 4.8 1.6 6.4s0 4.8 0 6.4c0 9.6-3.2 19.2-11.2 25.6 1.6 0-1.6 1.6-3.2 3.2z" />
<glyph unicode="&#xe911;" glyph-name="air" d="M915.209 760.033c0 86.4-70.4 156.8-156.8 156.8-19.2 0-36.8-16-36.8-36.8s16-36.8 36.8-36.8c46.4 0 84.8-38.4 84.8-84.8s-38.4-84.8-84.8-84.8h-694.4c-19.2 0-36.8-16-36.8-36.8s16-36.8 36.8-36.8h694.4c86.4 3.2 156.8 73.6 156.8 160zM204.8 468.834c-19.2 0-36.8-16-36.8-36.8s16-36.8 36.8-36.8h476.8c19.2 0 36.8 16 36.8 36.8s-16 36.8-36.8 36.8h-476.8zM838.409 260.834h-694.4c-19.2 0-36.8-16-36.8-36.8s16-36.8 36.8-36.8h694.4c46.4 0 84.8-38.4 84.8-84.8 0-24-9.6-46.4-27.2-62.4-14.4-12.8-16-36.8-1.6-51.2 6.4-8 17.6-11.2 27.2-11.2 8 0 17.6 3.2 24 9.6 32 30.4 51.2 72 51.2 116.8 0 86.4-72 156.8-158.4 156.8z" />
<glyph unicode="&#xe912;" glyph-name="airbnb" d="M511.991 188.8c-56 70.4-87.998 131.2-99.198 185.6-49.6 196.8 249.598 196.8 199.998 0-12.8-54.4-46.4-118.4-100.8-185.6zM815.991 27.2c-92.796-40-185.6 24-264 110.4 230.4 288 104 444.8-40 444.8-121.598 0-188.798-100.8-161.598-222.4 16-65.6 56-137.6 121.598-220.8-71.998-78.4-132.798-116.8-188.798-121.6-110.4-17.6-196.801 89.6-155.2 200 33.6 86.4 248 512 257.6 534.4 33.6 67.2 55.998 126.4 131.198 126.4 72 0 97.604-56 132.804-132.8 81.6-155.2 198.396-392 254.396-528 24-72-6.4-156.8-88-190.4zM921.591 328c-286.396 606.4-302.396 616-409.6 616-100.798 0-143.998-70.4-187.198-160-236.8-472-257.6-536-262.4-544-54.4-153.6 60.8-288 198.4-288 48 0 136 12.8 249.598 137.6 131.2-142.4 225.6-137.6 249.6-137.6 139.204 0 254.404 136 198.404 288 1.6 9.6-36.804 86.4-36.804 88z" />
<glyph unicode="&#xe913;" glyph-name="air-conditioner" d="M912 804.833h-800c-46.4 0-84.8-38.4-84.8-84.8v-275.199c0-64 52.8-116.8 116.8-116.8h736c64 0 116.8 52.8 116.8 116.8v276.799c0 46.4-38.4 83.2-84.8 83.2zM112 732.833h800c6.4 0 12.8-4.8 12.8-12.8v-180.8h-824v182.4c0 6.4 4.8 11.2 11.2 11.2zM880 403.234h-736c-24 0-44.8 19.2-44.8 44.8v22.4h824v-22.4c1.6-25.6-19.2-44.8-43.2-44.8zM214.4 280c-19.2 0-36.8-16-36.8-36.8v-60.8c0-12.8-9.6-22.4-22.4-22.4h-59.2c-19.2 0-36.8-16-36.8-36.8s16-36.8 36.8-36.8h60.8c51.2 0 94.4 41.6 94.4 94.4v60.8c0 22.4-16 38.4-36.8 38.4zM408 280c-19.2 0-36.8-16-36.8-36.8v-60.8c0-12.8-9.6-22.4-22.4-22.4h-60.8c-19.2 0-36.8-16-36.8-36.8s16-36.8 36.8-36.8h60.8c51.2 0 94.4 41.6 94.4 94.4v60.8c0 22.4-16 38.4-35.2 38.4zM928 163.251h-60.8c-12.8 0-22.4 9.6-22.4 22.4v60.8c0 19.2-16 36.8-36.8 36.8s-36.8-16-36.8-36.8v-60.8c0-51.2 41.6-94.4 94.4-94.4h62.4c19.2 0 36.8 16 36.8 36.8s-17.6 35.2-36.8 35.2zM734.4 163.251h-60.8c-12.8 0-22.4 9.6-22.4 22.4v60.8c0 19.2-16 36.8-36.8 36.8s-36.8-16-36.8-36.8v-60.8c0-51.2 41.6-94.4 94.4-94.4h60.8c19.2 0 36.8 16 36.8 36.8s-14.4 35.2-35.2 35.2z" />
<glyph unicode="&#xe914;" glyph-name="air-conditioner-1" d="M912 804.833h-800c-46.4 0-84.8-38.4-84.8-84.8v-275.199c0-64 52.8-116.8 116.8-116.8h736c64 0 116.8 52.8 116.8 116.8v276.799c0 46.4-38.4 83.2-84.8 83.2zM112 732.833h800c6.4 0 12.8-4.8 12.8-12.8v-180.8h-824v182.4c0 6.4 4.8 11.2 11.2 11.2zM880 403.234h-736c-24 0-44.8 19.2-44.8 44.8v22.4h824v-22.4c1.6-25.6-19.2-44.8-43.2-44.8zM214.4 280c-19.2 0-36.8-16-36.8-36.8v-60.8c0-12.8-9.6-22.4-22.4-22.4h-59.2c-19.2 0-36.8-16-36.8-36.8s16-36.8 36.8-36.8h60.8c51.2 0 94.4 41.6 94.4 94.4v60.8c0 22.4-16 38.4-36.8 38.4zM408 280c-19.2 0-36.8-16-36.8-36.8v-60.8c0-12.8-9.6-22.4-22.4-22.4h-60.8c-19.2 0-36.8-16-36.8-36.8s16-36.8 36.8-36.8h60.8c51.2 0 94.4 41.6 94.4 94.4v60.8c0 22.4-16 38.4-35.2 38.4zM928 163.251h-60.8c-12.8 0-22.4 9.6-22.4 22.4v60.8c0 19.2-16 36.8-36.8 36.8s-36.8-16-36.8-36.8v-60.8c0-51.2 41.6-94.4 94.4-94.4h62.4c19.2 0 36.8 16 36.8 36.8s-17.6 35.2-36.8 35.2zM734.4 163.251h-60.8c-12.8 0-22.4 9.6-22.4 22.4v60.8c0 19.2-16 36.8-36.8 36.8s-36.8-16-36.8-36.8v-60.8c0-51.2 41.6-94.4 94.4-94.4h60.8c19.2 0 36.8 16 36.8 36.8s-14.4 35.2-35.2 35.2z" />
<glyph unicode="&#xe915;" glyph-name="air-mail" d="M360-32c-4.8 0-8 0-12.8 1.6-16 3.2-28.8 14.4-35.2 28.8l-76.8 172.8-171.2 76.8c-14.4 6.4-25.6 19.2-28.8 35.2s0 32 9.6 44.8l59.2 75.2c14.4 17.6 36.8 24 59.2 16l110.4-40 115.2 131.2-224 223.999c-9.6 9.6-16 22.4-16 36.8s4.8 27.2 16 36.8l51.2 49.6c14.4 14.4 36.8 19.2 56 11.2l332.8-128 75.2 75.2c60.8 60.8 140.8 99.2 227.2 108.8h1.6c22.4 1.6 44.8-6.4 62.4-22.4 16-16 24-38.4 22.4-60.8-8-88-46.4-171.2-110.4-232l-73.6-73.6 126.4-332.799c8-19.2 3.2-41.6-11.2-56l-49.6-49.6c-20.8-20.8-52.8-20.8-73.6 0l-225.6 225.6-132.8-115.2 41.6-110.4c8-20.8 1.6-44.8-16-59.2l-75.2-59.2c-9.6-6.4-20.8-11.2-33.6-11.2zM116.8 304l161.6-70.4c8-3.2 14.4-9.6 17.6-17.6l72-163.2 43.2 33.6-44.8 120c-4.8 14.4-1.6 30.4 9.6 40l179.2 153.6c14.4 12.8 35.2 11.2 49.6-1.6l232-232 27.2 27.2-131.2 342.399c-4.8 12.8-1.6 28.8 8 38.4l89.6 89.6c51.2 49.6 83.2 116.8 88 187.2 0 1.6 0 3.2-1.6 3.2-1.6 1.6-1.6 1.6-3.2 1.6h-1.6c-68.8-8-134.4-38.4-182.4-88l-91.2-92.8c-9.6-9.6-25.6-12.8-38.4-8l-344 131.2-27.2-27.2 233.6-233.6c12.8-12.799 14.4-35.199 1.6-49.599l-153.6-176c-9.6-11.2-25.6-16-40-9.6l-120 43.2-33.6-41.6z" />
<glyph unicode="&#xe916;" glyph-name="airtable" d="M513.788 876.083c-18.236 0-36.548-3.669-53.777-10.965l-375.274-157.611c-21.132-8.874-20.585-38.741 0.504-47.616l377.335-151.808c33.058-13.611 70.037-13.611 103.095 0l377.335 151.808c21.129 8.363 21.129 38.742 0.503 47.616l-376.286 157.611c-16.905 7.261-35.081 10.99-53.436 10.965zM993.041 616.243c-3.204-0.021-6.37-0.674-9.327-1.92l-420.608-165.419c-4.706-1.958-8.734-5.291-11.575-9.57-2.842-4.288-4.369-9.327-4.386-14.494v-379.563c0.038-4.156 1.071-8.239 3.012-11.895 1.941-3.661 4.732-6.784 8.128-9.101 3.392-2.317 7.296-3.763 11.362-4.207 4.070-0.448 8.183 0.119 11.985 1.651l420.651 165.973c4.715 1.779 8.777 4.992 11.635 9.195 2.854 4.207 4.369 9.203 4.331 14.315v379.563c-0.047 6.76-2.722 13.227-7.445 17.992-4.719 4.765-11.106 7.439-17.762 7.437v0.043zM38.399 614.579c-3.73 0.134-7.447-0.517-10.917-1.911s-6.619-3.505-9.248-6.195c-4.621-4.736-8.234-10.454-8.234-17.28v-356.481c0-18.859 21.635-31.445 38.145-23.040l276.301 134.528 124.727 61.269c19.58 9.387 18.065 38.741-2.56 46.592l-399.518 160.684c-2.758 1.171-5.707 1.808-8.696 1.876v-0.043z" />
<glyph unicode="&#xe917;" glyph-name="alarm" d="M921.6 110.434l-32 49.6c-6.4 9.6-9.6 19.2-9.6 30.4v332.8c0 94.399-40 182.399-113.6 247.999-59.2 52.8-136 86.4-217.6 92.8v32c0 19.2-16 36.8-36.8 36.8-19.2 0-36.8-16-36.8-36.8v-30.4c-3.2 0-6.4 0-9.6-1.6-185.602-20.8-324.802-169.6-324.802-347.199v-326.4c-1.6-16-4.8-24-8-28.8l-30.4-51.2c-9.6-16-9.6-35.2 0-51.2 9.6-14.4 25.6-24 43.2-24h331.202v-35.2c0-19.2 16-36.8 36.8-36.8 19.2 0 36.8 16 36.8 36.8v35.2h329.6c17.6 0 33.6 9.6 43.2 24 9.6 16 9.596 35.2-1.6 51.2zM183.998 107.234l11.2 19.2c9.6 16 14.4 35.2 17.6 57.6v332.8c0 140.799 112 259.199 260.802 275.199 91.2 9.6 180.8-17.6 246.4-75.2 57.6-51.2 89.6-120 89.6-193.599v-332.8c0-24 6.4-46.4 20.8-68.8l9.6-14.4h-656.002z" />
<glyph unicode="&#xe918;" glyph-name="alarm-2" d="M960 187.234l-62.4 145.6c-6.4 16-11.2 33.6-11.2 51.2v128c0 94.399-40 182.399-113.6 247.999-62.4 54.4-140.8 88-224 96v40c0 19.2-16 36.8-36.8 36.8-19.2 0-36.8-16-36.8-36.8v-40c-3.2 0-6.4 0-9.6-1.6-187.2-20.8-328-171.2-328-348.799v-121.6c0-17.6-3.2-35.2-11.2-51.2l-62.4-145.6c-16-36.8-12.8-80 9.6-113.6s60.8-54.4 100.8-54.4h300.8v-20.8c0-19.2 16-36.8 35.2-36.8s35.2 16 36.8 35.2v20.8h300.8c41.6 0 78.4 20.8 100.8 54.4 24 36.8 27.2 78.4 11.2 115.2zM889.6 113.634c-9.6-14.4-24-22.4-40-22.4h-675.2c-16 0-32 8-40 22.4-9.6 14.4-11.2 30.4-4.8 44.8l62.4 145.6c11.2 25.6 16 52.8 16 80v121.6c0 140.799 113.6 260.799 264 276.799 12.8 1.6 25.6 1.6 36.8 1.6 80 0 155.2-27.2 212.8-80s89.6-121.6 89.6-195.199v-124.8c0-27.2 4.8-54.4 16-80l62.4-145.6c11.2-14.4 9.6-30.4 0-44.8z" />
<glyph unicode="&#xe919;" glyph-name="alarm-3" d="M926.396 92.834l-32 51.2c-6.4 9.6-9.6 19.2-9.6 30.4v336c0 94.399-40 183.999-115.2 249.599-60.8 54.4-139.2 88-222.4 96v40c0 19.2-16 36.8-35.2 36.8s-36.8-16-36.8-36.8v-40c-3.2 0-6.4 0-9.6-1.6-187.2-20.8-328-171.2-328-350.399v-329.6c-1.6-16-4.8-24-8-28.8l-32-52.8c-9.6-16-9.6-36.8 0-51.2s25.6-24 43.2-24h332.8v-17.6c0-19.2 16-36.8 36.8-36.8s35.2 16 35.2 36.8v17.6h336c17.6 0 33.6 9.6 43.2 24 11.2 16 11.2 35.2 1.6 51.2zM473.596 782.433c92.8 9.6 182.4-17.6 248-76.8 57.6-52.8 91.2-121.6 91.2-196.799v-252.8h-603.2v246.4c0 143.999 113.6 263.999 264 279.999zM179.196 89.634l12.8 20.8c9.6 17.6 14.4 35.2 17.6 57.6v17.6h603.2v-12.8c0-24 6.4-46.4 20.8-68.8l9.6-16h-664v1.6z" />
<glyph unicode="&#xe91a;" glyph-name="alarm-4" d="M755.204 273.583c-3.2 4.8-3.2 8-3.2 11.2v203.2c0 60.8-25.6 118.4-73.6 161.6-36.8 32-81.6 52.8-129.6 59.2v32c0 19.2-16 36.8-36.8 36.8-19.2 0-36.8-16-36.8-36.8v-32c-116.798-16-203.198-112-203.198-224v-198.4c-1.6-6.4-1.6-9.6-3.2-11.2l-19.2-32c-9.6-14.4-9.6-32 0-46.4 8-12.8 22.4-20.8 38.4-20.8h187.198v-20.8c0-19.2 16-36.8 36.8-36.8 19.2 0 36.8 16 36.8 36.8v20.8h187.2c16 0 30.4 8 38.4 20.8 9.6 14.4 8 32 0 46.4l-19.2 30.4zM336.006 247.983c3.2 9.6 6.4 19.2 8 32v204.8c0 78.4 62.4 145.6 145.598 153.6 51.2 6.4 102.4-9.6 139.2-43.2 32-28.8 49.6-67.2 49.6-108.8v-203.2c0-12.8 3.2-25.6 8-36.8h-350.398v1.6zM212.806 495.991c-14.4 14.4-36.8 14.4-51.2 1.6-22.4-20.8-35.2-49.6-35.2-81.6 0-30.4 12.8-59.2 35.2-81.6 6.4-6.4 16-9.6 25.6-9.6s19.2 3.2 25.6 11.2c14.4 14.4 12.8 36.8-1.6 51.2-8 8-12.8 17.6-12.8 28.8s4.8 20.8 12.8 28.8c14.4 14.4 14.4 36.8 1.6 51.2zM100.802 415.957c0 36.8 14.4 70.4 41.6 96 14.4 14.4 14.4 36.8 1.6 51.2s-36.8 14.4-51.2 1.6c-41.6-40-64-92.8-64-148.8s22.4-108.8 64-148.8c6.4-6.4 16-9.6 25.6-9.6s19.2 3.2 25.6 11.2c14.4 14.4 12.8 36.8-1.6 51.2-27.2 25.6-41.6 59.2-41.6 96zM862.4 497.549c-14.4 14.4-36.8 12.8-51.2-1.6s-12.8-36.8 1.6-51.2c8-8 12.8-17.6 12.8-28.8s-4.8-20.8-12.8-28.8c-14.4-14.4-14.4-36.8-1.6-51.2 6.4-8 16-11.2 25.6-11.2s17.6 3.2 25.6 9.6c22.4 20.8 35.2 49.6 35.2 81.6 0 30.4-12.8 59.2-35.2 81.6zM932.804 564.8c-14.4 14.4-36.8 12.8-51.2-1.6s-12.8-36.8 1.6-51.2c27.2-25.6 41.6-60.8 41.6-96 0-36.8-14.4-70.4-41.6-96-14.4-14.4-14.4-36.8-1.6-51.2 6.4-8 16-11.2 25.6-11.2s17.6 3.2 25.6 9.6c41.6 40 64 92.8 64 148.8s-24 108.8-64 148.8z" />
<glyph unicode="&#xe91b;" glyph-name="alarm-alt" d="M929.596 145.634l-33.6 36.8c-44.8 49.6-73.6 112-78.4 177.6v163.2c0 79.999-32 156.799-88 212.799-49.6 49.6-113.6 80-182.4 86.4v73.6c0 19.2-16 36.8-36.8 36.8-19.2 0-36.8-16-36.8-36.8v-73.6c-65.6-8-129.6-38.4-179.2-86.4-57.6-56-88-132.8-88-212.799v-163.2c-4.8-65.6-33.6-128-78.4-177.6l-33.6-35.2c-9.6-11.2-12.8-25.6-6.4-38.4s19.2-20.8 33.6-20.8h241.6c11.2-68.8 72-121.6 144-121.6s132.8 52.8 144 121.6h251.2c14.4 0 27.2 8 33.6 20.8s3.2 27.2-6.4 36.8zM507.196 35.234c-32 0-59.2 20.8-70.4 49.6h140.8c-9.6-27.2-38.4-49.6-70.4-49.6zM201.596 158.434c43.2 56 70.4 124.8 76.8 195.2 0 3.2 0 6.4 0 6.4v161.6c0 60.799 24 118.399 67.2 161.599s100.8 67.2 161.6 67.2h9.6c60.8 0 118.4-24 161.6-67.2s67.2-100.8 67.2-161.599v-169.6c6.4-70.4 32-139.2 76.8-195.2h-620.8v1.6z" />
<glyph unicode="&#xe91c;" glyph-name="alarm-check" d="M830.4 724.813l-89.6-57.6-20.8 27.2c-12.8 16-35.2 17.6-51.2 4.8s-17.6-35.2-4.8-51.2l41.6-51.2c6.4-8 17.6-12.8 27.2-12.8 6.4 0 12.8 1.6 19.2 6.4l116.8 75.2c16 11.2 20.8 33.6 11.2 49.6-11.2 16-33.6 20.8-49.6 9.6zM756.8 908.833c-105.6 0-195.2-68.8-227.2-164.8-35.2 17.6-72 27.2-110.4 32v57.6c0 19.2-16 35.2-35.2 35.2s-35.2-16-35.2-35.2v-57.6c-1.6 0-1.6 0-3.2 0-158.4-17.6-278.4-145.6-278.4-297.599v-275.2c-1.6-12.8-4.8-19.2-6.4-22.4l-25.6-43.2c-9.6-14.4-11.2-33.6-1.6-48l1.6-1.6c9.6-14.4 24-22.4 41.6-22.4h272v-43.2c0-19.2 16-35.2 35.2-35.2s35.2 16 35.2 35.2v43.2h273.6c17.6 0 32 8 40 22.4 9.6 16 9.6 35.2 0 51.2l-27.2 41.6c-4.8 8-6.4 14.4-6.4 22.4v236.8c17.6-4.8 36.8-6.4 56-6.4 131.2 0 238.4 107.199 238.4 238.399s-104 236.8-236.8 236.8zM646.4 142.434l3.2-3.2h-264c0 0 0 0-1.6 0s0 0-1.6 0h-264l4.8 8c8 12.8 12.8 28.8 16 49.6v281.6c0 115.199 92.8 212.799 214.4 225.599 59.2 6.4 116.8-6.4 166.4-35.2 0-83.2 44.8-156.799 110.4-198.399v-267.2c-1.6-22.4 4.8-41.6 16-60.8zM756.8 504.034c-91.2 0-166.4 75.199-166.4 166.399s75.2 166.4 166.4 166.4c91.2 0 166.4-75.2 166.4-166.4s-73.6-166.399-166.4-166.399z" />
<glyph unicode="&#xe91d;" glyph-name="alarmclock" d="M694.396 403.234h-145.6v148.799c0 19.2-16 36.8-36.8 36.8-19.2 0-36.8-16-36.8-36.8v-148.799h-4.8c-19.2 0-36.8-16-36.8-36.8s16-36.8 36.8-36.8h4.8v-4.8c0-19.2 16-36.8 36.8-36.8 19.2 0 36.8 16 36.8 36.8v4.8h145.6c19.2 0 36.8 16 36.8 36.8s-17.6 36.8-36.8 36.8zM951.996 654.433c0 88-70.4 158.4-158.4 158.4-41.6 0-80-16-108.8-43.2-43.2 19.2-88 32-137.6 35.2v54.4h44.8c19.2 0 36.8 16 36.8 36.8s-16 36.8-36.8 36.8h-161.6c-19.2 0-36.8-16-36.8-36.8s16-36.8 36.8-36.8h44.8v-56c-48-4.8-94.4-16-137.6-35.2-28.8 27.2-67.2 43.2-108.8 43.2-88 0-158.4-70.4-158.4-158.4 0-43.2 17.6-84.8 49.6-113.6-19.2-47.999-30.4-100.799-30.4-155.199 0-232 188.8-420.8 420.8-420.8s420.8 188.8 420.8 420.8c0 54.4-11.2 107.2-30.4 155.199 33.6 30.4 51.2 72 51.2 115.2zM793.596 740.833c48 0 86.4-38.4 86.4-86.4 0-16-4.8-32-12.8-44.8-30.4 48-68.8 88-115.2 120 12.8 8 27.2 11.2 41.6 11.2zM143.996 654.433c0 48 38.4 86.4 86.4 86.4 14.4 0 28.8-3.2 41.6-11.2-46.4-32-84.8-73.6-115.2-120-8 14.4-12.8 28.8-12.8 44.8zM511.996 35.234c-192 0-348.8 156.8-348.8 348.8s156.8 348.799 348.8 348.799c192 0 348.8-156.8 348.8-348.799s-156.8-348.8-348.8-348.8z" />
<glyph unicode="&#xe91e;" glyph-name="alarm-clock-alt" d="M500.8 796.75c-203.202 0-369.602-166.4-369.602-369.601 0-94.4 35.2-180.8 94.4-246.4l-73.6-110.4c-11.2-16-6.4-38.4 9.6-49.6 6.4-4.8 12.8-6.4 19.2-6.4 11.2 0 22.4 6.4 30.4 16l67.2 102.4c62.4-46.4 137.6-73.6 220.802-73.6 83.2 0 160 27.2 220.8 73.6l67.2-102.4c6.4-9.6 17.6-16 30.4-16 6.4 0 14.4 1.6 19.196 6.4 16 11.2 20.804 33.6 9.604 49.6l-73.6 110.4c59.2 65.6 94.4 152 94.4 246.4 3.2 203.201-161.6 369.601-366.4 369.601zM203.198 427.149c0 164.801 132.8 297.601 297.602 297.601 164.8 0 297.6-132.8 297.6-297.601s-132.8-297.6-297.6-297.6c-164.802 0-297.602 132.8-297.602 297.6zM987.2 679.971l-166.4 190.4c-12.8 14.4-35.2 16-51.2 3.2-14.4-12.8-16-35.2-3.2-51.2l166.4-190.4c6.4-8 17.6-12.8 27.2-12.8 8 0 17.6 3.2 24 9.6 14.4 12.8 16 36.8 3.2 51.2zM254.399 873.571c-14.4 12.8-38.4 11.2-51.2-3.2l-166.4-190.4c-12.8-14.4-11.2-38.4 3.2-51.2 6.4-6.4 16-9.6 24-9.6 9.6 0 19.2 4.8 27.2 12.8l166.4 190.4c12.8 16 11.2 38.4-3.2 51.2zM641.6 412.749h-104v124.801c0 19.2-16 35.2-36.8 35.2s-35.2-16-35.2-35.2v-161.601c0-19.2 16-35.2 35.2-35.2h140.8c19.2 0 35.2 16 35.2 35.2s-14.4 36.8-35.2 36.8z" />
<glyph unicode="&#xe91f;" glyph-name="alarm-clock-alt-1" d="M756.796 867.21l75.2-59.2c6.4-4.8 14.4-8 22.4-8 11.2 0 20.8 4.8 28.8 14.4 12.8 16 9.6 38.4-6.4 51.2l-76.8 59.2c-16 12.8-38.4 9.6-51.2-6.4-11.2-16-8-38.4 8-51.2zM169.604 800.010c8 0 16 3.2 22.4 8l76.8 59.2c16 12.8 19.2 35.2 6.4 51.2s-35.2 19.2-51.2 6.4l-76.8-60.8c-16-11.2-19.2-33.6-6.4-49.6 6.4-9.6 17.6-14.4 28.8-14.4zM771.2 132.8c91.2 75.2 148.8 188.8 148.8 315.2 0 225.6-182.4 408-408 408s-408-182.4-408-408c0-126.4 57.6-240 148.8-315.2l-99.2-108.8c-12.8-14.4-12.8-36.8 1.6-51.2 6.4-6.4 16-9.6 24-9.6 9.6 0 19.2 3.2 27.2 11.2l107.2 116.8c59.2-33.6 126.4-52.8 200-52.8 72 0 140.8 19.2 200 52.8l107.2-116.8c6.4-8 17.6-11.2 27.2-11.2 8 0 17.6 3.2 24 9.6 14.4 12.8 16 36.8 1.6 51.2l-102.4 108.8zM176 448c0 185.6 150.4 336 336 336s336-150.4 336-336c0-185.6-150.4-336-336-336s-336 150.4-336 336zM704.004 484.8h-156.8v150.4c0 19.2-16 36.8-36.8 36.8-19.2 0-36.8-16-36.8-36.8v-187.2c0-19.2 16-36.8 36.8-36.8h192c19.2 0 36.8 16 36.8 36.8s-16 36.8-35.2 36.8z" />
<glyph unicode="&#xe920;" glyph-name="alarm-timer" d="M793.6 667.2v73.6c0 19.2-16 35.2-35.2 35.2s-35.2-16-35.2-35.2v-89.6c0-9.6 3.2-19.2 11.2-25.6l52.8-52.8c6.4-6.4 16-11.2 25.6-11.2s19.2 3.2 25.6 11.2c14.4 14.4 14.4 36.8 0 51.2l-44.8 43.2zM756.8 908.833c-105.6 0-195.2-68.8-227.2-164.8-35.2 17.6-72 27.2-110.4 32v57.6c0 19.2-16 35.2-35.2 35.2s-35.2-16-35.2-35.2v-57.6c-1.6 0-1.6 0-3.2 0-158.4-17.6-278.4-145.6-278.4-297.599v-275.2c-1.6-12.8-4.8-19.2-6.4-22.4l-25.6-43.2c-9.6-14.4-11.2-33.6-1.6-48l1.6-1.6c9.6-14.4 24-22.4 41.6-22.4h272v-43.2c0-19.2 16-35.2 35.2-35.2s35.2 16 35.2 35.2v43.2h273.6c17.6 0 32 8 40 22.4 9.6 16 9.6 35.2 0 51.2l-27.2 41.6c-4.8 8-6.4 14.4-6.4 22.4v236.8c17.6-4.8 36.8-6.4 56-6.4 131.2 0 238.4 107.199 238.4 238.399s-104 236.8-236.8 236.8zM646.4 142.434l3.2-3.2h-264c0 0 0 0-1.6 0s0 0-1.6 0h-264l4.8 8c8 12.8 12.8 28.8 16 49.6v281.6c0 115.199 92.8 212.799 214.4 225.599 59.2 6.4 116.8-6.4 166.4-35.2 0-83.2 44.8-156.799 110.4-198.399v-267.2c-1.6-22.4 4.8-41.6 16-60.8zM756.8 504.034c-91.2 0-166.4 75.199-166.4 166.399s75.2 166.4 166.4 166.4c91.2 0 166.4-75.2 166.4-166.4s-73.6-166.399-166.4-166.399z" />
<glyph unicode="&#xe921;" glyph-name="alart-database" d="M726.4 552.014v216c0 97.6-176 147.2-348.798 147.2-174.4 1.6-348.8-49.6-348.8-147.2v-392.001c0-97.6 176-148.8 348.8-148.8 16 0 33.6 0 49.598 1.6 17.6-140.8 137.6-249.6 283.2-249.6 158.4 0 286.4 128 286.4 286.4 0 153.6-120 276.801-270.4 286.401zM100.802 675.214c67.2-35.2 172.8-54.4 276.8-54.4 103.998 0 209.598 19.2 276.798 54.4v-48c-1.6-22.4-97.6-75.2-276.798-75.2-179.2 0-276.8 54.4-276.8 75.2v48zM377.602 844.814c179.198 0 276.798-54.4 276.798-75.2-1.6-22.4-97.6-75.2-276.798-75.2-179.2 0-276.8 54.4-276.8 75.2s96 75.2 276.8 75.2zM100.802 534.414c65.6-35.201 171.2-54.401 276.8-54.401 55.998 0 111.998 4.8 163.198 16-24-17.6-44.8-38.4-62.4-64-32-4.8-65.598-6.4-100.798-6.4-179.2 0-276.8 54.4-276.8 75.2v33.601zM100.802 376.013v32c67.2-35.2 172.8-54.4 276.8-54.4 20.8 0 41.6 0 60.798 1.6-6.4-17.6-9.6-35.2-12.798-54.4-16-1.6-32-1.6-49.6-1.6-180.8 1.6-275.2 57.6-275.2 76.8zM710.4 51.213c-118.4 0-214.4 96-214.4 214.4s96 214.4 214.4 214.4c118.4 0 214.4-96 214.4-214.4s-97.596-214.4-214.4-214.4zM710.404 411.209c-19.2 0-36.8-16-36.8-36.8v-134.4c0-19.2 16-36.8 36.8-36.8s36.8 16 36.8 36.8v134.4c-1.6 20.8-17.6 36.8-36.8 36.8zM710.404 174.417c-19.2 0-36.8-16-36.8-36.8v-6.4c0-19.2 16-36.8 36.8-36.8s36.8 16 36.8 36.8v6.4c-1.6 20.8-17.6 36.8-36.8 36.8z" />
<glyph unicode="&#xe922;" glyph-name="align-left" d="M104.002 931.167c-19.2 0-35.2-16-35.2-35.2v-896.001c0-19.2 16-35.2 35.2-35.2s35.2 16 35.2 35.2v896.001c1.6 19.2-14.4 35.2-35.2 35.2zM846.4 785.583h-505.6c-60.8 0-108.8-49.6-108.8-108.8v-32c0-60.8 49.6-108.8 108.8-108.8h505.6c60.8 0 108.8 49.6 108.8 108.8v32c0 59.2-49.6 108.8-108.8 108.8zM883.2 643.183c0-20.8-16-36.8-36.8-36.8h-505.6c-20.8 0-36.8 16-36.8 36.8v32c0 20.8 16 36.8 36.8 36.8h505.6c20.8 0 36.8-16 36.8-36.8v-32zM641.6 361.583h-300.8c-60.8 0-108.8-49.6-108.8-108.8v-32c0-60.8 49.6-108.8 108.8-108.8h300.8c60.8 0 108.8 49.6 108.8 108.8v32c1.6 59.2-48 108.8-108.8 108.8zM680 219.183c0-20.8-16-36.8-36.8-36.8h-302.4c-20.8 0-36.8 16-36.8 36.8v32c0 20.8 16 36.8 36.8 36.8h300.8c20.8 0 36.8-16 36.8-36.8v-32h1.6z" />
<glyph unicode="&#xe923;" glyph-name="align-right" d="M920 931.167c-19.2 0-35.2-16-35.2-35.2v-896.001c0-19.2 16-35.2 35.2-35.2s35.2 16 35.2 35.2v896.001c0 19.2-16 35.2-35.2 35.2zM683.2 785.583h-505.598c-60.8 0-108.8-49.6-108.8-108.8v-32c0-60.8 49.6-108.8 108.8-108.8h505.598c60.8 0 108.8 49.6 108.8 108.8v32c0 59.2-48 108.8-108.8 108.8zM720 643.183c0-20.8-16-36.8-36.8-36.8h-505.598c-20.8 0-36.8 16-36.8 36.8v32c0 20.8 16 36.8 36.8 36.8h505.598c20.8 0 36.8-16 36.8-36.8v-32zM683.204 361.583h-300.8c-60.8 0-108.8-49.6-108.8-108.8v-32c0-60.8 49.6-108.8 108.8-108.8h300.8c60.8 0 108.8 49.6 108.8 108.8v32c0 59.2-48 108.8-108.8 108.8zM720.004 219.183c0-20.8-16-36.8-36.8-36.8h-300.8c-20.8 0-36.8 16-36.8 36.8v32c0 20.8 16 36.8 36.8 36.8h300.8c20.8 0 36.8-16 36.8-36.8v-32z" />
<glyph unicode="&#xe924;" glyph-name="align-right-1" d="M945.6 760c-19.2 0-35.2-16-35.2-35.2v-552c0-19.2 16-35.2 35.2-35.2s35.2 16 35.2 35.2v552c0 19.2-16 35.2-35.2 35.2zM832 623.933c0 57.6-46.4 102.4-104 102.4h-395.199c-57.6 0-102.4-46.4-102.4-102.4v-30.4c0-57.6 46.4-104.002 102.4-104.002h395.199c57.6 0 104 46.402 104 104.002v30.4zM760 593.533c0-17.6-14.4-32-32-32h-395.199c-17.6 0-30.4 14.4-30.4 32v30.4c0 17.6 14.4 30.4 30.4 30.4h395.199c17.6 0 32-14.4 32-30.4v-30.4zM728 404.749h-275.2c-57.599 0-102.399-46.4-102.399-102.4v-30.4c0-57.6 46.4-104 102.399-104h276.8c57.6 0 104 46.4 104 104v30.4c-1.6 57.6-48 102.4-105.6 102.4zM760 271.949c0-17.6-14.4-32-32-32h-275.2c-17.6 0-30.399 14.4-30.399 32v30.4c0 17.6 14.399 30.4 30.399 30.4h276.8c17.6 0 32-14.4 32-30.4v-30.4h-1.6zM929.6 35.166h-784.001c-17.6 0-32 14.4-32 32v761.601c0 17.6 14.4 32 32 32h784.001c19.2 0 35.2 16 35.2 35.2s-16 35.2-35.2 35.2h-784.001c-57.6 0-104-46.4-104-104v-761.601c0-57.6 46.4-104 104-104h784.001c19.2 0 35.2 16 35.2 35.2s-14.4 38.4-35.2 38.4z" />
<glyph unicode="&#xe925;" glyph-name="align-right-2" d="M945.6 760c-19.2 0-35.2-16-35.2-35.2v-552c0-19.2 16-35.2 35.2-35.2s35.2 16 35.2 35.2v552c0 19.2-16 35.2-35.2 35.2zM683.2 748.733c-57.6 0-104-46.4-104-104v-395.202c0-57.6 46.4-104 104-104h30.4c57.6 0 104 46.4 104 104v396.802c0 57.6-46.4 104-104 104h-30.4v-1.6zM744 646.333v-395.202c0-17.6-14.4-32-32-32h-30.4c-17.6 0-32 14.4-32 32v395.202c0 17.6 14.4 32 32 32h30.4c19.2-1.6 32-16 32-32zM929.6 35.166h-784.001c-17.6 0-32 14.4-32 32v761.601c0 17.6 14.4 32 32 32h784.001c19.2 0 35.2 16 35.2 35.2s-16 35.2-35.2 35.2h-784.001c-57.6 0-104-46.4-104-104v-761.601c0-57.6 46.4-104 104-104h784.001c19.2 0 35.2 16 35.2 35.2s-14.4 38.4-35.2 38.4z" />
<glyph unicode="&#xe926;" glyph-name="amazon" d="M414.438 391.966c17.601-19.2 40.001-30.4 65.601-30.4 3.2 0 8 0 14.4 1.6 1.6 0 3.2 0 4.8 1.6 28.8 8 52.8 27.2 67.2 56 6.4 12.8 11.2 25.6 14.4 38.4 3.2 11.2 4.8 22.4 4.8 33.6v49.601c0 19.2-16 36.8-36.8 36.8-32 0-54.4-1.6-70.4-6.4-56.001-16-88.001-56.001-88.001-112.001 1.6-28.8 8-49.6 24-68.8-1.6 0-1.6 0 0 0zM499.238 500.766c3.2 1.6 8 1.6 14.4 3.2v-12.8c0-3.2-1.6-11.2-3.2-17.6s-4.8-12.8-8-20.8c-6.4-12.8-14.4-17.6-19.2-19.2-1.6 0-3.2 0-6.4-1.6-3.2 0-4.8 1.6-8 4.8-3.2 4.8-4.8 11.2-4.8 20.8 0 20.8 4.8 35.2 35.2 43.2zM249.588 566.397c-25.6-36.801-38.4-81.601-38.4-131.201 0-65.6 19.2-116.8 57.6-152 36.8-35.2 86.4-54.4 144-54.4 35.2 0 64 3.2 89.6 11.2 30.4 9.6 60.8 27.2 91.2 52.8 17.6-19.2 36.8-43.2 43.2-48 1.6-1.6 4.8-3.2 8-4.8 9.6-4.8 19.2-6.4 28.8-6.4 14.4 0 25.6 3.2 35.2 11.2 4.8 3.2 32 27.2 51.2 44.8 49.6 44.8 56 52.8 56 70.4 0 11.2-3.2 22.4-11.2 33.6 0 1.6-1.6 3.2-3.2 3.2-9.6 12.8-16 22.4-22.4 28.8 0 0-3.2 4.8-8 17.6-3.2 9.6-4.8 20.8-4.8 33.6v227.201c0 9.6 0 20.8-1.6 27.2-1.6 19.2-3.2 25.6-4.8 30.4-12.8 80-84.8 164.8-243.2 169.6-3.2 0-99.2 3.2-182.4-40-49.6-25.6-86.4-83.2-102.4-153.6-1.6-8-1.6-12.8-1.6-16 0-27.2 17.6-46.4 44.8-52.8 1.6 0 1.6 0 3.2 0l96-11.2c-8-3.2-14.4-4.8-22.4-8-43.2-19.2-78.4-46.4-102.4-83.2zM495.987 609.597c14.4 1.6 35.2 3.2 64 6.4l17.6 1.6c19.2 1.6 33.6 17.6 33.6 35.2v16c0 49.6-6.4 81.6-19.2 100.8-22.4 30.4-49.6 46.4-86.4 46.4-9.6 0-49.6 0-88-30.4-19.2-16-33.6-35.2-40-59.2l-68.8 8c11.2 43.2 33.6 76.8 60.8 91.2 67.2 35.2 145.6 32 147.2 32 147.2-4.8 172.8-86.4 177.6-110.4 0-1.6 0-3.2 0-3.2s1.6-4.8 1.6-20.8c1.6-11.2 1.6-19.2 1.6-20.8v-227.201c0-20.8 3.2-40 8-56 6.4-19.2 12.8-32 20.8-41.6 3.2-3.2 6.4-8 11.2-14.4-17.6-16-46.4-43.2-62.4-56-16 17.6-44.8 51.2-49.6 57.6-6.4 8-16 14.4-25.6 14.4-11.2 1.6-22.4-3.2-28.8-11.2-30.4-32-59.2-52.8-86.4-60.8-19.2-4.8-41.6-8-68.8-8-38.4 0-70.4 11.2-94.4 35.2-24 22.4-35.2 54.4-35.2 99.2 0 35.2 8 65.6 25.6 89.6 16 24.001 40 41.601 72 54.401 27.2 17.6 67.2 27.2 112 32zM427.187 670.397c8 8 14.4 20.8 17.6 33.6 3.2 11.2 8 19.2 16 25.6 19.2 14.4 40 14.4 40 14.4 1.6 0 1.6 0 3.2 0 12.8 0 20.8-4.8 28.8-14.4 0 0 4.8-9.6 6.4-43.2-22.4-1.6-38.4-3.2-51.2-4.8-22.4-3.2-43.2-6.4-60.8-11.2zM849.613 131.204c-1.6-1.6-4.8-1.6-11.2-4.8-4.8-1.6-8-3.2-11.2-4.8-100.8-38.4-203.2-57.6-305.6-57.6-155.2 0-297.6 38.4-430.4 113.6-4.8 3.2-9.6 3.2-12.8-1.6-1.6-1.6-1.6-3.2-1.6-4.8s1.6-4.8 4.8-8c57.6-52.8 123.2-92.8 196.8-121.6 72-25.6 150.4-41.6 233.6-41.6 52.8 0 107.2 8 164.8 22.4 56 16 107.2 35.2 152 62.4 16 8 27.2 17.6 35.2 24 8 4.8 8 11.2 4.8 17.6-4.8 6.4-11.2 8-19.2 4.8zM942.387 185.617c-4.8 4.8-19.2 9.6-43.2 11.2-4.8 1.6-9.6 1.6-16 1.6-19.2 0-38.4-3.2-59.2-8-11.2-3.2-25.6-8-38.4-19.2-1.6-1.6-3.2-4.8-4.8-6.4 0-1.6-1.6-1.6-1.6-1.6 0-1.6 0-1.6 1.6-3.2s3.2-1.6 6.4-1.6c11.2 1.6 22.4 3.2 35.2 4.8 11.2 1.6 22.4 1.6 32 1.6 24 0 38.4-3.2 44.8-9.6 1.6-1.6 3.2-6.4 3.2-12.8 0-17.6-9.6-49.6-28.8-96-1.6-4.8-1.6-8 1.6-8 1.6 0 1.6-1.6 3.2-1.6s4.8 1.6 8 3.2c17.6 16 32 35.2 43.2 60.8s16 46.4 16 65.6v4.8c0 6.4 0 9.6-3.2 14.4z" />
<glyph unicode="&#xe927;" glyph-name="amazon-original" d="M896.026 220.813c-121.6-51.2-254.4-76.8-374.4-76.8-175.998-1.6-348.798 48-489.599 131.2-11.2 6.4-22.4-4.8-11.2-16 128-116.8 299.201-187.2 489.599-187.2 136 0 292.8 43.2 401.6 121.6 19.2 14.4 3.2 35.2-16 27.2zM1003.234 281.596c-11.2 16-112 27.2-176-16-9.6-6.4-6.404-16 1.596-16 33.6 4.8 112.004 12.8 126.404-4.8s-16.004-89.6-27.204-123.2c-4.8-9.6 4.8-12.8 12.8-6.4 60.8 49.6 76.804 152 62.404 166.4zM561.638 628.833c-51.2-4.8-121.6-9.6-169.601-32-56-24-97.6-73.599-97.6-147.199 0-94.4 59.2-142.4 136.001-142.4 62.4 0 99.2 16 148.8 65.6 16-22.4 22.4-36.8 51.2-60.8 6.4-1.6 16-1.6 22.4 1.6 17.6 16 51.2 44.8 70.4 59.2 6.4 6.4 6.4 16 0 22.4-16 22.4-33.6 40-33.6 83.2v142.399c0 59.2 4.8 115.2-40 155.2-33.6 33.6-92.8 44.8-136 44.8-86.4 0-180.801-32-200.001-137.6-1.6-11.2 6.4-17.6 11.2-17.6l86.4-9.6c9.6 0 12.8 9.6 16.001 16 6.4 36.8 36.8 54.4 72 54.4 17.6 0 40-6.4 51.2-22.4 11.2-17.6 11.2-44.8 11.2-65.6v-9.6zM544.038 441.634c-12.8-24-36.8-40-60.8-40-33.6 0-56 27.2-56 65.6 0 76.799 70.4 89.599 132.8 89.599v-20.8c1.6-31.999 1.6-62.399-16-94.399z" />
<glyph unicode="&#xe928;" glyph-name="amazon-pay" d="M16 327.983c0 1.6 1.6 4.8 4.8 4.8 3.2 1.6 8 0 11.2-1.6 17.6-9.6 33.6-17.6 51.2-27.2 65.6-32 136-56 206.4-75.2 33.6-6.4 67.2-12.8 102.4-17.6 51.2-6.4 102.4-9.6 153.6-6.4 27.2 0 56 1.6 86.4 6.4 89.6 11.2 180.8 33.6 264 70.4 4.8 1.6 9.6 1.6 16 1.6 11.2-1.6 12.8-12.8 6.4-22.4-4.8-4.8-9.6-6.4-16-11.2-49.6-33.6-104-59.2-160-76.8-40-11.2-81.6-22.4-121.6-27.2-75.2-8-153.6-9.6-228.8 1.6-44.8 6.4-88 17.6-131.2 33.6-25.6 9.6-51.2 20.8-75.2 32-24 12.8-48 25.6-72 40-24 19.2-44.8 35.2-67.2 51.2-3.2 3.2-8 6.4-11.2 9.6s-6.4 8-12.8 8c-1.6 0-3.2 1.6-4.8 1.6 0 3.2-1.6 3.2-1.6 4.8zM272 753.583l-6.4-1.6c-22.4-1.6-43.2-11.2-60.8-25.6-4.8-1.6-6.4-6.4-11.2-9.6v1.6c0 4.8-1.6 9.6-1.6 12.8-1.6 6.4-4.8 11.2-11.2 11.2h-20.8c-11.2 0-12.8-1.6-12.8-12.8v-339.2c0-1.6 0-1.6 0-4.8 0-4.8 1.6-6.4 6.4-6.4 11.2 0 22.4 0 33.6 0 4.8 0 6.4 1.6 6.4 6.4 0 1.6 0 1.6 0 4.8v116.8c1.6-1.6 1.6-1.6 1.6-1.6 28.8-25.6 60.8-32 99.2-25.6 32 6.4 56 27.2 72 56 11.2 22.4 16 48 17.6 72 1.6 27.2-1.6 54.4-11.2 81.6-12.8 32-36.8 51.2-72 60.8-4.8 1.6-11.2 1.6-16 1.6-1.6 1.6-6.4 1.6-12.8 1.6zM196.8 683.183c0 1.6 1.6 4.8 1.6 4.8 22.4 16 48 22.4 75.2 22.4 25.6-1.6 43.2-12.8 54.4-43.2 6.4-17.6 6.4-36.8 6.4-54.4s-1.6-33.6-6.4-49.6c-11.2-33.6-36.8-48-70.4-48-22.4 1.6-43.2 9.6-60.8 22.4 0 4.8 0 6.4 0 6.4 0 22.4 0 44.8 0 67.2 0 27.2 0 49.6 0 72zM529.6 753.583c-1.6 0-1.6 0-4.8 0-16 0-32-1.6-48-6.4-9.6-1.6-20.8-6.4-28.8-9.6-6.4-1.6-9.6-6.4-9.6-11.2s0-11.2 0-16c0-6.4 1.6-9.6 11.2-6.4 11.2 1.6 25.6 6.4 38.4 9.6 20.8 1.6 40 4.8 60.8 1.6 11.2-1.6 20.8-4.8 27.2-12.8 6.4-6.4 6.4-17.6 9.6-27.2 0-12.8 0-27.2 0-40v-1.6c-1.6 0-1.6 0-1.6 0-17.6 4.8-33.6 6.4-51.2 6.4-17.6 1.6-36.8 0-54.4-6.4-22.4-6.4-36.8-20.8-48-40-6.4-16-9.6-32-6.4-49.6 1.6-22.4 12.8-40 33.6-51.2 17.6-11.2 40-11.2 60.8-9.6 25.6 1.6 48 12.8 65.6 28.8 1.6 0 1.6 1.6 1.6 1.6 1.6-6.4 1.6-11.2 1.6-17.6 1.6-4.8 4.8-6.4 9.6-6.4 9.6 0 17.6 0 27.2 0 4.8 0 6.4 1.6 6.4 6.4 0 1.6 0 1.6 0 4.8v168c0 6.4 0 12.8-1.6 22.4-1.6 22.4-11.2 38.4-32 49.6-11.2 6.4-22.4 9.6-36.8 11.2-6.4 1.6-11.2 1.6-17.6 1.6 1.6 0-6.4 0-12.8 0zM587.2 545.583c0-1.6-1.6-1.6-1.6-4.8-17.6-11.2-38.4-22.4-60.8-25.6-9.6-1.6-17.6 0-27.2 1.6s-17.6 11.2-20.8 22.4c-1.6 11.2-1.6 22.4 0 32 4.8 12.8 12.8 22.4 27.2 25.6 11.2 4.8 27.2 4.8 40 1.6 12.8-1.6 27.2-1.6 40-6.4 1.6 0 1.6-1.6 1.6-4.8 0-6.4 0-16 0-22.4s1.6-12.8 1.6-19.2zM1004.8 334.383c0 4.8-3.2 9.6-9.6 12.8-16 8-38.4 9.6-56 9.6-36.8 1.6-78.4-8-110.4-28.8-1.6-1.6-4.8-1.6-6.4-6.4-1.6-1.6-1.6-4.8-1.6-6.4s1.6-1.6 6.4-1.6c1.6 0 1.6 0 1.6 0 11.2 1.6 25.6 1.6 36.8 4.8 22.4 4.8 51.2 3.2 73.6 0 4.8-1.6 8-1.6 11.2-4.8 6.4-4.8 6.4-14.4 4.8-22.4-4.8-35.2-17.6-72-35.2-102.4-1.6-1.6-1.6-3.2-1.6-4.8 0-3.2 4.8-4.8 8-4.8 3.2 1.6 6.4 3.2 8 6.4 4.8 4.8 9.6 9.6 12.8 14.4 16 19.2 27.2 43.2 36.8 67.2 9.6 19.2 22.4 44.8 20.8 67.2zM795.2 534.383c-22.4 56-43.2 115.2-64 174.4-1.6 9.6-6.4 17.6-11.2 27.2-1.6 4.8-4.8 6.4-11.2 6.4-11.2 0-25.6 0-36.8 0-4.8 0-6.4-1.6-4.8-6.4 1.6-1.6 1.6-6.4 1.6-9.6 32-78.4 64-158.4 97.6-235.2 1.6-6.4 1.6-11.2 0-17.6-4.8-11.2-9.6-25.6-16-36.8-4.8-11.2-11.2-17.6-25.6-22.4-6.4-4.8-16-4.8-22.4-4.8-4.8 0-6.4 1.6-11.2 1.6-6.4 0-6.4-1.6-6.4-6.4s0-11.2 0-16c0-9.6 1.6-11.2 11.2-12.8s17.6-1.6 27.2-1.6c27.2 0 49.6 11.2 64 33.6 6.4 9.6 11.2 20.8 16 28.8 38.4 97.6 76.8 193.6 115.2 291.2 1.6 1.6 1.6 6.4 1.6 9.6 0 4.8-1.6 6.4-6.4 6.4-11.2 0-22.4 0-32 0-6.4 0-11.2-1.6-11.2-6.4-1.6-1.6-1.6-4.8-1.6-6.4l-56-164.8c-4.8-11.2-6.4-22.4-11.2-36.8-6.4 1.6-6.4 4.8-6.4 4.8z" />
<glyph unicode="&#xe929;" glyph-name="amex" d="M110.476 345.331h46.556l14.448 46.827h88.294l14.448-46.827h88.294v154.999l56.187-154.999h41.742l56.188 150.157v-150.157h40.132v206.669h-65.822l-51.371-138.854-51.37 138.854h-72.241v-196.979l-72.24 196.979h-56.189l-77.057-206.669zM908.8 345.331l-77.056 103.334 77.056 103.334h-56.188l-51.371-61.355-41.741 61.355h-168.563v-206.669h163.75l51.371 67.814 51.371-67.814h51.371zM213.219 510.020l25.685-71.040h-51.371l25.686 71.040zM631.074 505.178h102.741l41.741-56.512-46.558-61.355h-97.924v40.367h93.111v41.98h-93.111v35.52zM878.097 740.952c39.134 0 70.857-31.723 70.857-70.856v-448.763c0-39.134-31.723-70.857-70.857-70.857h-732.192c-39.133 0-70.857 31.723-70.857 70.857v448.763c0 39.133 31.724 70.856 70.857 70.856h732.192zM145.905 800c-71.744 0-129.905-58.16-129.905-129.904v-448.763c0-71.744 58.16-129.903 129.905-129.903h732.192c71.744 0 129.903 58.159 129.903 129.903v448.763c0 71.744-58.159 129.904-129.903 129.904h-732.192z" />
<glyph unicode="&#xe92a;" glyph-name="analytics" d="M985.6 25.591l-256 256c129.6 155.2 121.6 387.2-24 534.4-75.2 75.2-174.4 116.8-279.998 116.8-107.2-1.6-206.4-41.6-281.6-116.8s-115.2-174.4-115.2-280c0-105.6 41.6-204.8 116.8-280 76.8-76.8 179.2-115.2 280-115.2 89.598 0 180.798 30.4 254.398 91.2l256-256c6.4-6.4 16-11.2 25.6-11.2s19.2 3.2 25.604 11.2c12.796 12.8 12.796 35.2-1.604 49.6zM195.202 305.591c-60.8 62.4-94.4 144-94.4 230.4s33.6 168 94.4 228.8c60.8 60.8 142.4 94.4 228.8 94.4 86.398 0 167.998-33.6 228.798-94.4 126.4-126.4 126.4-332.8 0-459.2-124.8-126.4-331.198-126.4-457.598 0zM387.203 745.597c-78.4 1.6-116.8-65.6-128-102.4-4.8-19.2 6.4-38.4 25.6-43.2 3.2-1.6 6.4-1.6 9.6-1.6 16 0 30.4 9.6 35.2 25.6 0 1.6 14.4 49.6 54.4 49.6h1.6c19.2 0 36.8 14.4 36.8 35.2s-16 36.8-35.2 36.8zM606.404 652.783c-1.6 0-51.2 14.4-49.6 56 0 19.2-14.4 36.8-35.2 36.8-19.2 0-36.8-14.4-36.8-35.2-3.2-78.4 65.6-116.8 102.4-128 3.2-1.6 6.4-1.6 9.6-1.6 16 0 30.4 11.2 35.2 25.6 4.8 22.4-6.4 41.6-25.6 46.4zM204.799 489.57c-17.6-9.6-24-32-12.8-49.6 9.6-17.6 32-24 49.6-12.8 0 0 46.4 25.6 73.6-4.8 6.4-8 16-11.2 25.6-11.2s17.6 3.2 24 9.6c14.4 14.4 16 36.8 1.6 51.2-52.8 57.6-129.6 36.8-161.6 17.6zM582.4 431.974c-19.2 4.8-38.4-6.4-44.8-25.6 0 0-14.4-51.2-56-49.6-19.2 1.6-36.8-14.4-36.8-35.2 0-19.2 14.4-36.8 35.2-36.8 1.6 0 3.2 0 4.8 0 75.2 0 113.6 67.2 123.2 102.4 4.8 19.2-6.4 40-25.6 44.8z" />
<glyph unicode="&#xe92b;" glyph-name="analytics-alt-1" d="M896 931.167h-767.998c-54.4 0-99.2-44.8-99.2-99.2v-768.001c0-54.4 44.8-100.8 100.8-100.8h767.998c54.4 0 100.8 44.8 100.8 100.8v768.001c-1.6 54.4-48 99.2-102.4 99.2zM924.8 63.966c0-16-12.8-28.8-28.8-28.8h-767.998c-16 0-28.8 12.8-28.8 28.8v273.6l129.6 110.4c14.4-8 30.4-12.8 48-12.8 27.2 0 52.8 11.2 70.4 30.4l62.4-36.8c-1.6-6.4-1.6-11.2-1.6-17.6 0-52.8 43.198-96 95.998-96s96 43.2 96 96c0 1.6 0 3.2 0 3.2l107.2 99.2c16.004-11.2 33.6-17.6 54.4-17.6 52.8 0 96 43.201 96 96.001s-43.2 96-96 96c-52.8 0-96-43.2-96-96 0-6.4 0-12.8 1.6-19.2l-99.2-91.201c-17.6 16-40 24-64 24-20.8 0-40-6.4-56-19.2l-75.198 44.8c0 52.801-43.2 96.001-96 96.001s-96-43.2-96-96.001c0-9.6 1.6-19.2 4.8-28.8l-84.8-70.4v400.001c0 16 11.2 27.2 27.2 27.2h767.998c16 0 28.8-12.8 28.8-28.8v-766.401zM276.802 507.166c-14.4 0-24 11.2-24 24 0 14.401 11.2 24.001 24 24.001 14.4 0 24-11.2 24-24.001s-11.2-24-24-24zM529.6 409.566c0-14.4-11.2-24-24-24-14.4 0-24 11.2-24 24s11.2 24 24 24c12.8 1.6 24-9.6 24-24zM737.6 591.967c0 14.4 11.2 24 24 24s24-11.2 24-24c0-14.4-11.2-24-24-24s-24 11.2-24 24z" />
<glyph unicode="&#xe92c;" glyph-name="android" d="M240.356 743.215c15.885 8.058 35.202 1.526 43.144-14.591l63.396-128.641c46.947 17.111 101.62 27.045 165.104 27.045 47.407 0 89.899-5.54 127.932-15.471l57.69 117.067c7.945 16.117 27.26 22.65 43.145 14.591s22.323-27.657 14.383-43.774l-53.82-109.21c164.971-72.953 225.225-238.88 237.129-354.826 2.453-23.898-16.883-43.405-40.563-43.405h-771.789c-23.68 0-43.015 19.507-40.562 43.405 11.036 107.52 63.653 258.014 202.79 337.498l-62.359 126.538c-7.942 16.117-1.504 35.715 14.382 43.774zM726.387 366.016c0 24.030-19.2 43.503-42.88 43.503s-42.876-19.473-42.876-43.503c0-24.026 19.196-43.499 42.876-43.499s42.88 19.473 42.88 43.499zM340.492 322.517c23.68 0 42.877 19.473 42.877 43.499 0 24.030-19.197 43.503-42.877 43.503s-42.877-19.473-42.877-43.503c0-24.026 19.197-43.499 42.877-43.499z" />
<glyph unicode="&#xe92d;" glyph-name="android-1" d="M430.413 763.167c-14.4 0-25.6-11.2-25.6-25.6s11.2-25.6 25.6-25.6c14.4 0 25.6 11.2 25.6 25.6s-11.2 25.6-25.6 25.6zM584.038 763.167c-14.4 0-25.6-11.2-25.6-25.6s11.2-25.6 25.6-25.6c14.4 0 25.6 11.2 25.6 25.6s-11.2 25.6-25.6 25.6zM849.626 665.6c-11.2 0-22.4-1.6-32-4.8-19.2 57.6-52.8 107.2-96 145.6l64 65.6c14.4 14.4 12.8 36.8 0 51.2-14.4 14.4-36.8 14.4-51.2 0l-72-73.6c-44.8 24-96 36.8-148.8 36.8s-104-12.8-148.8-36.8l-72 73.6c-14.4 14.4-36.8 14.4-51.2 0s-14.4-36.8 0-51.2l62.4-64c-41.6-36.8-75.2-84.8-94.4-140.8-11.2 3.2-22.4 6.4-33.6 6.4-56 0-102.4-46.4-102.4-102.4v-171.2c0-56 46.4-102.4 102.4-102.4 11.2 0 20.8 1.6 30.4 4.8v-94.4c0-24 17.6-41.6 41.6-41.6h17.6v-99.2c0-56 46.4-102.4 102.4-102.4s102.4 46.4 102.4 102.4v99.2h73.6v-99.2c0-56 46.4-102.4 102.4-102.4s102.4 46.4 102.4 102.4v99.2h27.2c24 0 41.6 19.2 41.6 41.6v88c9.6-3.2 19.2-4.8 30.4-4.8 56 0 102.4 46.4 102.4 102.4v169.6c1.6 56-44.8 102.4-100.8 102.4zM512.026 811.2c91.2 0 172.8-49.6 216-124.8h-432c43.2 76.8 124.8 124.8 216 124.8zM174.426 369.6c-16 0-30.4 12.8-30.4 30.4v169.6c0 17.6 14.4 30.4 30.4 30.4s30.4-14.4 30.4-30.4v-169.6c1.6-17.6-12.8-30.4-30.4-30.4zM398.426 67.2c0-17.6-14.4-30.4-30.4-30.4s-30.4 14.4-30.4 30.4v99.2h60.8v-99.2zM676.826 67.2c0-17.6-14.4-30.4-30.4-30.4s-30.4 14.4-30.4 30.4v99.2h60.8v-99.2zM278.426 236.8v377.6h468.8v-376h-468.8v-1.6zM880.026 393.6c0-17.6-14.4-30.4-30.4-30.4s-30.4 14.4-30.4 30.4v169.6c0 17.6 14.4 30.4 30.4 30.4s30.4-14.4 30.4-30.4v-169.6z" />
<glyph unicode="&#xe92e;" glyph-name="android-original" d="M236.812 215.983c0-36.8 28.8-67.2 67.2-67.2h43.2v-136c0-33.6 27.2-60.8 60.8-60.8s60.8 27.2 60.8 60.8v136h81.6v-136c0-33.6 27.2-60.8 60.8-60.8s60.8 27.2 60.8 60.8v136h43.2c36.8 0 67.2 28.8 67.2 67.2v393.6h-545.6v-393.6zM647.987 851.2l41.6 76.8c1.6 4.8 1.6 9.6-1.6 11.2-3.2 4.8-4.8 4.8-4.8 4.8-1.6 0-6.4-1.6-6.4-4.8l-43.2-78.4c-36.8 16-76.8 24-116.8 24-43.2 0-81.6-9.6-116.8-24l-43.2 78.4c-1.6 4.8-6.4 6.4-11.2 1.6-4.8-1.6-6.4-6.4-1.6-11.2l43.2-76.8c-89.6-44.8-144-126.4-144-220.8h547.2c-3.2 96-62.4 176-142.4 219.2zM385.588 731.2c-11.2 0-22.4 11.2-22.4 22.4s11.2 22.4 22.4 22.4c11.2 0 22.4-11.2 22.4-22.4s-8-22.4-22.4-22.4zM638.387 731.2c-11.2 0-22.4 11.2-22.4 22.4s11.2 22.4 22.4 22.4c11.2 0 22.4-11.2 22.4-22.4s-9.6-22.4-22.4-22.4zM153.612 620.833c-33.6 0-60.8-27.2-60.8-60.8v-254.399c0-33.6 27.2-60.8 60.8-60.8s60.8 27.2 60.8 60.8v254.399c1.6 35.2-27.2 60.8-60.8 60.8zM870.426 620.833c-33.6 0-60.8-27.2-60.8-60.8v-254.399c0-33.6 27.2-60.8 60.8-60.8s60.8 27.2 60.8 60.8v254.399c0 35.2-27.2 60.8-60.8 60.8z" />
<glyph unicode="&#xe92f;" glyph-name="angellist" d="M750.4 529.6c22.4 62.4 88 244.8 88 302.4 0 51.2-32 94.4-86.4 94.4-86.4 0-164.8-252.8-187.2-315.2-20.8 56-105.6 332.8-184 332.8-60.8 0-88-44.8-88-100.8 0-67.2 65.6-246.4 89.6-313.6-11.2 4.8-25.6 6.4-38.4 6.4-44.8 0-92.8-56-92.8-100.8 0-17.6 9.6-43.2 16-56-72-20.8-99.2-65.6-99.2-139.2 0-139.2 131.2-286.4 318.4-286.4 227.2 0 369.6 171.2 369.6 392-3.2 84.8-14.4 158.4-105.6 184zM681.6 734.4c6.4 22.4 40 124.8 72 124.8 17.6 0 22.4-17.6 22.4-32 0-36.8-76.8-238.4-89.6-286.4l-65.6 11.2 60.8 182.4zM353.6 851.2c0 22.4 27.2 88 89.6-89.6l65.6-193.6c-32 1.6-54.4 6.4-67.2-1.6-20.8 52.8-88 228.8-88 284.8zM348.8 473.6c56 0 131.2-182.4 131.2-208 0-9.6-9.6-22.4-20.8-22.4-40 0-148.8 148.8-148.8 188.8 0 14.4 22.4 41.6 38.4 41.6zM704 112c-56-60.8-128-94.4-211.2-94.4-115.2 0-204.8 62.4-248 169.6-32 83.2 6.4 131.2 40 131.2 22.4 0 105.6-115.2 105.6-139.2 0-9.6-16-16-22.4-16-32 0-43.2 28.8-99.2 99.2-56-56 40-169.6 112-169.6 51.2 0 83.2 48 73.6 81.6 6.4 0 16 0 22.4 1.6 1.6-51.2 17.6-115.2 81.6-120 0 1.6 4.8 12.8 4.8 12.8 0 33.6-20.8 62.4-20.8 97.6 0 54.4 43.2 108.8 86.4 139.2 16 11.2 33.6 17.6 51.2 24s38.4 16 51.2 28.8c-1.6 22.4-11.2 40-32 40-56 1.6-236.8-4.8-236.8 78.4 0 11.2 0 25.6 33.6 25.6 60.8 0 220.8-16 268.8-56 35.2-27.2 46.4-214.4-60.8-334.4zM515.2 358.4c17.6-6.4 38.4-6.4 56-11.2-12.8-11.2-27.2-22.4-38.4-36.8-6.4 14.4-12.8 28.8-17.6 48z" />
<glyph unicode="&#xe930;" glyph-name="angle-double-down" d="M486.404 345.566c6.4-6.4 16-9.6 25.6-9.6s17.6 3.2 25.6 9.6l368 361.601c14.4 14.4 14.4 36.8 0 51.2s-36.8 14.4-51.2 0l-342.4-336.001-342.4 336.001c-14.4 14.4-36.8 14.4-51.2 0s-14.4-36.8 0-51.2l368-361.601zM854.404 550.367l-342.4-336.001-342.4 336.001c-14.4 14.4-36.8 14.4-51.2 0s-14.4-36.801 0-51.201l368-361.6c6.4-6.4 16-9.6 25.6-9.6s17.6 3.2 25.6 9.6l368 361.6c14.4 14.4 14.4 36.801 0 51.201s-36.8 14.4-51.2 0z" />
<glyph unicode="&#xe931;" glyph-name="angle-double-left" d="M486.396 448.017l337.6 342.4c14.4 14.4 14.4 36.8 0 51.2s-36.8 14.4-51.2 0l-361.6-368c-14.4-14.4-14.4-36.8 0-51.2l361.6-368c6.4-6.4 16-11.2 25.6-11.2s17.6 3.2 25.6 9.6c14.4 14.4 14.4 36.8 0 51.2l-337.6 344zM278.396 448.017l337.6 342.4c14.4 14.4 14.4 36.8 0 51.2s-36.8 14.4-51.2 0l-361.6-368c-14.4-14.4-14.4-36.8 0-51.2l361.6-368c6.4-6.4 16-11.2 25.6-11.2s17.6 3.2 25.6 9.6c14.4 14.4 14.4 36.8 0 51.2l-337.6 344z" />
<glyph unicode="&#xe932;" glyph-name="angle-double-right" d="M614.4 473.617l-361.598 368c-14.4 14.4-36.8 14.4-51.2 0s-14.4-36.8 0-51.2l335.998-342.4-335.998-342.4c-14.4-14.4-14.4-36.8 0-51.2 6.4-6.4 16-9.6 25.6-9.6s19.2 3.2 25.6 11.2l361.598 368c14.4 12.8 14.4 35.2 0 49.6zM822.4 473.617l-361.6 368c-14.4 14.4-36.798 14.4-51.198 0s-14.4-36.8 0-51.2l335.998-342.4-335.998-342.4c-14.4-14.4-14.4-36.8 0-51.2 6.4-6.4 16-9.6 25.598-9.6 9.6 0 19.2 3.2 25.6 11.2l361.6 368c14.4 12.8 14.4 35.2 0 49.6z" />
<glyph unicode="&#xe933;" glyph-name="angle-double-up" d="M537.604 550.367c-14.4 14.4-36.8 14.4-51.2 0l-368-361.601c-14.4-14.4-14.4-36.8 0-51.2s36.8-14.4 51.2 0l342.4 336 342.4-337.6c6.4-6.4 16-9.6 25.6-9.6s19.2 3.2 25.6 11.2c14.4 14.4 14.4 36.8 0 51.2l-368 361.601zM169.604 345.566l342.4 336.001 342.4-337.601c6.4-6.4 16-9.6 25.6-9.6s19.2 3.2 25.6 11.2c14.4 14.4 14.4 36.8 0 51.2l-368 361.601c-14.4 14.4-36.8 14.4-51.2 0l-368-361.601c-14.4-14.4-14.4-36.8 0-51.2s36.8-14.4 51.2 0z" />
<glyph unicode="&#xe934;" glyph-name="angular" d="M428.813 420.8h169.6l-86.4 203.2-83.2-203.2zM512.013 944l-459.2-164.8 72-611.2 387.2-216 390.4 216 70.4 611.2-460.8 164.8zM800.013 188.8h-108.8l-56 144h-244.8l-59.2-144h-107.2l288 644.8 288-644.8z" />
<glyph unicode="&#xe935;" glyph-name="apartment" d="M895.996 931.167h-359.996c-54.404 0-99.204-44.8-99.204-100.8v-62.4h-308.798c-54.4 0-100.8-44.8-100.8-100.8v-603.201c0-54.4 44.8-100.8 100.8-100.8h767.998c54.404 0 100.8 44.8 100.8 100.8v768.001c0 54.4-46.396 99.2-100.8 99.2zM435.2 35.166h-307.202c-16 0-28.8 12.8-28.8 28.8v604.801c0 16 12.8 28.8 28.8 28.8h307.202v-662.401zM924.796 63.966c0-16-12.8-28.8-28.8-28.8h-388.796v796.801c0 16 12.8 28.8 27.2 28.8h361.596c16 0 28.8-12.8 28.8-28.8v-768.001zM223.998 510.4h89.6c19.2 0 36.8 16 36.8 36.8s-16 36.8-36.8 36.8h-89.6c-19.2 0-36.8-16-36.8-36.8s17.6-36.8 36.8-36.8zM223.998 331.149h89.6c19.2 0 36.8 16 36.8 36.8s-16 36.8-36.8 36.8h-89.6c-19.2 0-36.8-16-36.8-36.8s17.6-36.8 36.8-36.8zM222.394 150.4h89.6c19.2 0 36.8 16 36.8 36.8s-16 36.8-36.8 36.8h-89.6c-19.2 0-36.8-16-36.8-36.8s17.6-36.8 36.8-36.8zM761.6 724.75h-89.6c-19.2 0-36.8-16-36.8-36.8s16-36.8 36.8-36.8h89.6c19.2 0 36.8 16 36.8 36.8s-17.6 36.8-36.8 36.8zM761.6 494.332h-89.6c-19.2 0-36.8-16-36.8-36.8 0-19.2 16-36.8 36.8-36.8h89.6c19.2 0 36.8 16 36.8 36.8-1.6 20.8-17.6 36.8-36.8 36.8zM759.996 264h-89.6c-19.2 0-36.8-16-36.8-36.8s16-36.8 36.8-36.8h89.6c19.2 0 36.8 16 36.8 36.8s-17.6 36.8-36.8 36.8z" />
<glyph unicode="&#xe936;" glyph-name="apartment-alt" d="M911.996 556.783h-383.996v168c0 46.4-38.404 84.8-83.204 84.8h-332.798c-46.4 0-84.8-38.4-84.8-84.8v-553.6c0-46.4 38.4-84.8 84.8-84.8h799.998c46.404 0 84.8 38.4 84.8 84.8v300.8c0 46.4-38.396 84.8-84.8 84.8zM457.596 158.383h-345.598c-6.4 0-12.8 4.8-12.8 12.8v553.6c0 6.4 4.8 12.8 12.8 12.8h332.798c6.404 0 12.8-4.8 12.8-12.8v-566.4zM924.796 171.183c0-6.4-4.8-12.8-12.8-12.8h-383.996v326.4h383.996c6.404 0 12.8-4.8 12.8-12.8v-300.8zM207.998 651.167h-40c-19.2 0-36.8-16-36.8-36.8s16-36.8 36.8-36.8h40c19.2 0 36.8 16 36.8 36.8s-17.6 36.8-36.8 36.8zM375.998 651.167h-40c-19.2 0-36.8-16-36.8-36.8s16-36.8 36.8-36.8h40c19.2 0 36.8 16 36.8 36.8s-17.6 36.8-36.8 36.8zM207.998 486.417h-40c-19.2 0-36.8-16-36.8-36.8s16-35.2 36.8-35.2h40c19.2 0 36.8 16 36.8 35.2s-17.6 36.8-36.8 36.8zM375.998 486.417h-40c-19.2 0-36.8-16-36.8-36.8s16-35.2 36.8-35.2h40c19.2 0 36.8 16 36.8 35.2s-17.6 36.8-36.8 36.8zM207.998 321.583h-40c-19.2 0-36.8-16-36.8-36.8s16-36.8 36.8-36.8h40c19.2 0 36.8 16 36.8 36.8s-17.6 36.8-36.8 36.8zM375.998 321.583h-40c-19.2 0-36.8-16-36.8-36.8s16-36.8 36.8-36.8h40c19.2 0 36.8 16 36.8 36.8s-17.6 36.8-36.8 36.8zM656 430.417h-40c-19.2 0-36.8-16-36.8-36.8s16-36.8 36.8-36.8h40c19.2 0 36.8 16 36.8 36.8s-16 36.8-36.8 36.8zM824 430.417h-40c-19.2 0-36.8-16-36.8-36.8s16-36.8 36.8-36.8h40c19.2 0 36.8 16 36.8 36.8s-16 36.8-36.8 36.8zM656 296h-40c-19.2 0-36.8-16-36.8-36.8s16-36.8 36.8-36.8h40c19.2 0 36.8 16 36.8 36.8s-16 36.8-36.8 36.8zM824 296h-40c-19.2 0-36.8-16-36.8-36.8s16-36.8 36.8-36.8h40c19.2 0 36.8 16 36.8 36.8s-16 36.8-36.8 36.8z" />
<glyph unicode="&#xe937;" glyph-name="apartments" d="M854.4 923.167h-380.8c-55.998 0-100.798-44.8-100.798-100.8v-102.4c-36.8 25.6-84.8 24-120-4.8l-147.2-120c-24-19.2-36.8-48-36.8-76.801v-448c0-56 44.8-100.8 100.8-100.8h686.398c56 0 100.8 44.8 100.8 100.8v752.001c-1.6 56-46.4 100.8-102.4 100.8zM358.402 44.766h-80v124.8c0 22.4 17.6 40 40 40 11.2 0 20.8-4.8 28.8-11.2 8-8 11.2-17.6 11.2-28.8v-124.8zM430.4 44.766v124.8c0 30.4-11.198 57.6-33.598 78.4-20.8 20.8-49.6 33.6-78.4 33.6-62.4 0-112-49.6-112-112v-124.8h-36.8c-16 0-28.8 12.8-28.8 28.8v448c0 8 3.2 16.001 9.6 22.401l147.2 120c9.6 8 25.6 8 35.2 0l147.198-120c6.4-4.8 9.6-12.801 9.6-22.401v-476.8h-59.2zM883.204 71.966c0-16-12.804-28.8-28.804-28.8h-244.8c0 0 0 0-1.6 0h-46.4v476.8c0 30.401-12.8 59.201-36.8 78.401l-80 65.6v160c0 16 12.8 28.8 28.8 28.8h382.4c16 0 28.8-12.8 28.8-28.8v-752.001h-1.596zM756.8 739.167h-132.8c-19.2 0-36.8-16-36.8-36.8s16-36.8 36.8-36.8h132.8c19.2 0 36.8 16 36.8 36.8s-16 36.8-36.8 36.8zM756.8 588.75h-132.8c-19.2 0-36.8-16-36.8-36.8 0-20.801 16-36.801 36.8-36.801h132.8c19.2 0 36.8 16 36.8 36.801 0 20.8-16 36.8-36.8 36.8zM756.8 436.749h-132.8c-19.2 0-36.8-16-36.8-36.8s16-36.8 36.8-36.8h132.8c19.2 0 36.8 16 36.8 36.8s-16 36.8-36.8 36.8zM756.8 284.749h-132.8c-19.2 0-36.8-16-36.8-36.8s16-36.8 36.8-36.8h132.8c19.2 0 36.8 16 36.8 36.8s-16 36.8-36.8 36.8z" />
<glyph unicode="&#xe938;" glyph-name="apartments-1" d="M840 531.166h-112v169.601c0 25.6-11.2 51.2-32 68.8-19.2 17.6-46.4 25.6-72 22.4l-57.6-8v56c0 51.2-41.6 91.2-91.2 91.2h-169.6c-51.2 0-91.2-41.6-91.2-91.2v-104l-41.6-4.8c-44.8-6.4-80-44.8-80-91.2v-585.601c0-51.2 41.6-91.2 91.2-91.2h654.4c51.2 0 91.2 41.6 91.2 91.2v384c1.6 51.2-40 92.8-89.6 92.8zM284.8 839.967c0 11.2 8 19.2 19.2 19.2h169.6c11.2 0 19.2-8 19.2-19.2v-65.6l-209.6-27.2v92.8h1.6zM184 35.166c-11.2 0-19.2 8-19.2 19.2v585.601c0 9.6 8 17.6 17.6 19.2l451.2 60.8c1.6 0 1.6 0 3.2 0 6.4 0 11.2-3.2 12.8-4.8 3.2-1.6 6.4-6.4 6.4-14.4v-644.801c0-11.2-8-19.2-19.2-19.2h-452.8v-1.6zM859.2 55.966c0-11.2-8-19.2-19.2-19.2h-115.2c1.6 6.4 1.6 12.8 1.6 19.2v403.2h112c11.2 0 19.2-8 19.2-19.2v-384h1.6zM337.6 590.333h-41.6c-9.6 0-16-6.4-16-16v-41.602c0-9.6 6.4-16 16-16h41.6c9.6 0 16 6.4 16 16v41.602c0 9.6-6.4 16-16 16zM523.2 590.333h-41.6c-9.6 0-16-6.4-16-16v-41.602c0-9.6 6.4-16 16-16h41.6c9.6 0 16 6.4 16 16v41.602c0 9.6-6.4 16-16 16zM337.6 404.749h-41.6c-9.6 0-16-6.4-16-16v-41.6c0-9.6 6.4-16 16-16h41.6c9.6 0 16 6.4 16 16v41.6c0 9.6-6.4 16-16 16zM523.2 404.749h-41.6c-9.6 0-16-6.4-16-16v-41.6c0-9.6 6.4-16 16-16h41.6c9.6 0 16 6.4 16 16v41.6c0 9.6-6.4 16-16 16zM337.6 219.166h-41.6c-9.6 0-16-6.4-16-16v-41.6c0-9.6 6.4-16 16-16h41.6c9.6 0 16 6.4 16 16v41.6c0 9.6-6.4 16-16 16zM523.2 219.166h-41.6c-9.6 0-16-6.4-16-16v-41.6c0-9.6 6.4-16 16-16h41.6c9.6 0 16 6.4 16 16v41.6c0 9.6-6.4 16-16 16zM814.4 414.332h-41.6c-9.6 0-16-6.4-16-16v-41.6c0-9.6 6.4-16 16-16h41.6c9.6 0 16 6.4 16 16v41.6c0 9.6-8 16-16 16zM814.4 230.332h-41.6c-9.6 0-16-6.4-16-16v-41.6c0-9.6 6.4-16 16-16h41.6c9.6 0 16 6.4 16 16v41.6c0 8-8 16-16 16z" />
<glyph unicode="&#xe939;" glyph-name="apartments-alt" d="M891.204-24h-108.804c-19.196 0-36.8 16-36.8 36.8v155.2c0 38.4-32 70.4-70.4 70.4s-70.4-32-70.4-70.4v-155.2c0-19.2-16-36.8-36.8-36.8h-435.198c-52.8 0-96 43.2-96 96v752c0 52.8 43.2 96 96 96h415.998c52.8 0 96-43.2 96-96v-196.8h246.404c52.796 0 96-43.2 96-96v-459.2c1.596-52.8-43.204-96-96-96zM819.204 48h72c12.796 0 24 11.2 24 24v459.2c0 12.8-11.204 24-24 24h-428.804c-12.8 0-24-11.2-24-24v-483.2h97.6v118.4c0 78.4 64 142.4 142.4 142.4s142.4-64 142.4-142.4v-118.4h-1.596zM132.802 848c-14.4 0-24-11.2-24-24v-752c0-12.8 11.2-24 24-24h233.6v483.2c0 52.8 43.2 96 95.998 96h110.4v196.8c0 12.8-11.2 24-24 24h-415.998z" />
<glyph unicode="&#xe93a;" glyph-name="apartments-alt-1" d="M899.2-25.6h-260.8c-19.2 0-36.8 16-36.8 36.8v88c0 24-9.6 46.4-25.6 64-16 16-38.4 25.6-60.8 25.6-24 0-44.8-8-62.4-25.6-19.2-19.2-30.402-43.2-30.402-70.4v-83.2c0-19.2-16-36.8-36.8-36.8h-260.8c-54.4 0-97.6 43.2-97.6 97.6v752c0 54.4 43.2 97.6 97.6 97.6h772.802c54.4 0 97.6-43.2 97.6-97.6v-752c1.6-52.8-43.2-96-96-96zM673.6 46.4h224c14.4 0 25.6 11.2 25.6 25.6v752c0 14.4-11.2 25.6-25.6 25.6h-772.802c-12.8 0-24-11.2-24-25.6v-752c0-14.4 11.2-25.6 25.6-25.6h224v46.4c0 44.8 19.2 89.6 51.2 121.6 32.002 30.4 72.002 46.4 113.602 46.4 41.6-1.6 80-17.6 110.4-48s48-70.4 48-113.6v-52.8zM342.394 676.817h-64c-19.2 0-36.8 16-36.8 36.8s16 36.8 36.8 36.8h64c19.2 0 36.8-16 36.8-36.8s-17.6-36.8-36.8-36.8zM752 676.817h-64c-19.2 0-36.8 16-36.8 36.8s16 36.8 36.8 36.8h64c19.2 0 36.8-16 36.8-36.8s-16-36.8-36.8-36.8zM342.394 499.234h-64c-19.2 0-36.8 16-36.8 36.799s16 36.8 36.8 36.8h64c19.2 0 36.8-16 36.8-36.8s-17.6-36.799-36.8-36.799zM752 499.234h-64c-19.2 0-36.8 16-36.8 36.799s16 36.8 36.8 36.8h64c19.2 0 36.8-16 36.8-36.8s-16-36.799-36.8-36.799zM342.394 321.566h-64c-19.2 0-36.8 16-36.8 36.8s16 36.8 36.8 36.8h64c19.2 0 36.8-16 36.8-36.8s-17.6-36.8-36.8-36.8zM752 321.566h-64c-19.2 0-36.8 16-36.8 36.8s16 36.8 36.8 36.8h64c19.2 0 36.8-16 36.8-36.8s-16-36.8-36.8-36.8z" />
<glyph unicode="&#xe93b;" glyph-name="apartments-alt-2" d="M511.996 740.75h-241.602c-19.2 0-36.8-16-36.8-36.8s16-36.8 36.8-36.8h241.602c19.2 0 36.8 16 36.8 36.8s-17.6 36.8-36.8 36.8zM511.996 536h-241.602c-19.2 0-36.8-16-36.8-36.8s16-36.8 36.8-36.8h241.602c19.2 0 36.8 16 36.8 36.8s-17.6 36.8-36.8 36.8zM867.2 820.767h-144v4.8c0 54.4-43.2 97.6-97.6 97.6h-468.802c-52.8 0-97.6-43.2-97.6-97.6v-756.801c0-54.4 43.2-97.6 97.6-97.6h467.202c54.4 0 97.6 43.2 97.6 97.6v11.2h144c54.4 0 97.6 43.2 97.6 97.6v545.601c1.6 54.4-43.2 97.6-96 97.6zM476.8 43.166h-169.602v188.8c0 14.4 11.2 25.6 25.6 25.6h118.402c14.4 0 25.6-11.2 25.6-25.6v-188.8zM651.2 70.366c0-14.4-11.2-25.6-25.6-25.6h-76.8v187.2c0 54.4-43.2 97.6-97.6 97.6h-118.402c-54.4 0-97.6-43.2-97.6-97.6v-188.8h-78.4c-14.4 0-25.6 11.2-25.6 25.6v756.801c0 14.4 11.2 25.6 25.6 25.6h467.202c14.4 0 25.6-11.2 25.6-25.6v-755.201h1.6zM892.796 177.566c0-14.4-11.196-25.6-25.596-25.6h-144v160h72c19.2 0 36.8 16 36.8 36.8s-16 36.8-36.8 36.8h-72v132.8h72c19.2 0 36.8 16.001 36.8 36.801s-16 36.8-36.8 36.8h-72v160h144c14.4 0 25.596-11.2 25.596-25.6v-548.801z" />
<glyph unicode="&#xe93c;" glyph-name="apartments-alt-3" d="M896 920h-379.2c-54.4 0-99.202-44.8-99.202-99.2v-166.4l-225.6-57.6c-44.8-11.2-75.2-51.2-75.2-96v-452.8h-52.8c-19.2 0-36.8-16-36.8-36.8s16-36.8 36.8-36.8h832.002c54.4 0 99.2 44.8 99.2 99.2v747.2c1.6 54.4-43.2 99.2-99.2 99.2zM406.398 48h-89.6v136c0 6.4 4.8 12.8 12.8 12.8h65.6c6.4 0 12.8-4.8 12.8-12.8v-136h-1.6zM478.4 48v136c0 46.4-38.4 84.8-84.802 84.8h-65.6c-46.4 0-84.8-38.4-84.8-84.8v-136h-56v452.8c0 12.8 8 24 20.8 27.2l291.202 73.6c8 1.6 17.6 0 24-4.8s11.2-12.8 11.2-22.4v-526.4h-56zM924.796 75.2c0-16-12.796-27.2-27.196-27.2h-244.8c0 0 0 0-1.6 0h-44.8v526.4c0 30.4-14.4 59.2-38.4 78.4-22.4 17.6-51.2 24-78.4 19.2v148.8c0 16 12.8 27.2 27.2 27.2h379.2c16 0 27.2-12.8 27.2-27.2v-745.6h1.596z" />
<glyph unicode="&#xe93d;" glyph-name="apartments-alt-4" d="M937.6 785.636l-190.4 99.2c-30.4 16-64 14.4-92.8-3.2-30.4-16-46.4-46.4-46.4-80v-188.8h-192.002v188.8c0 33.6-17.6 64-46.4 81.6s-64 19.2-92.8 3.2l-190.4-100.8c-32-16-51.2-48-51.2-84.8v-606.402c0-52.8 43.2-94.4 94.4-94.4h761.602c52.8 0 94.4 43.2 94.4 94.4v606.402c3.196 35.2-17.6 67.2-48 84.8zM131.198 72.034c-12.8 0-22.4 9.6-22.4 22.4v606.402c0 8 4.8 16 12.8 20.8l190.4 100.8c9.6 4.8 19.2 1.6 22.4 0s11.2-8 11.2-19.2v-188.8h-27.2c-46.4 0-84.8-38.4-84.8-84.802v-457.6h-102.4zM473.6 72.034v120c0 6.4 4.8 12.8 12.8 12.8h52.8c6.4 0 12.8-4.8 12.8-12.8v-120h-78.4zM622.4 72.034v120c0 46.4-38.4 84.8-84.8 84.8h-52.8c-46.4 0-84.802-38.4-84.802-84.8v-120h-96v456c0 6.402 4.8 12.802 12.8 12.802h390.402c6.4 0 12.8-4.8 12.8-12.802v-457.6h-97.6v1.6zM916.796 94.434c0-12.8-9.596-22.4-22.396-22.4h-102.4v456c0 46.402-38.4 84.802-84.8 84.802h-27.2v188.8c0 11.2 8 17.6 11.2 19.2s12.8 6.4 22.4 0l190.4-100.8c8-4.8 12.796-11.2 12.796-20.8v-604.802z" />
<glyph unicode="&#xe93e;" glyph-name="apartments-alt-5" d="M825.6 507.166h-340.8v185.601c0 20.8-6.4 40-17.6 56l-94.398 132.8c-19.2 25.6-48 41.6-80 41.6s-62.4-16-80-41.6l-94.4-132.8c-11.2-16-17.6-36.8-17.6-56v-620.801c0-54.4 44.8-99.2 99.2-99.2h641.598c46.4 0 84.8 38.4 84.8 84.8v352c-1.6 52.8-46.4 97.6-100.8 97.6zM278.402 407.966v-364.8h-80c-14.4 0-27.2 11.2-27.2 27.2v622.401c0 4.8 1.6 11.2 4.8 16l94.4 132.8c4.8 6.4 12.8 11.2 22.4 11.2s16-4.8 22.4-11.2l94.4-132.8c3.2-4.8 4.8-9.6 4.8-16v-185.601h-35.2c-56 0-100.8-44.8-100.8-99.2zM561.6 44.766v131.2c0 6.4 4.8 12.8 12.8 12.8h62.4c6.4 0 12.8-4.8 12.8-12.8v-131.2h-88zM852.8 55.966c0-6.4-6.4-12.8-12.8-12.8h-120v132.8c0 46.4-38.4 84.8-84.8 84.8h-62.4c-46.4 0-84.8-38.4-84.8-84.8v-131.2h-139.198v363.2c0 14.4 11.2 27.2 27.2 27.2h447.998c14.4 0 27.204-11.2 27.204-27.2v-352h1.596z" />
<glyph unicode="&#xe93f;" glyph-name="apartments-alt-6" d="M889.596 912h-372.8c-54.396 0-99.198-44.8-99.198-99.2v-97.6c-35.2 24-83.2 22.4-116.8-4.8l-140.8-115.2c-22.4-19.2-36.8-46.4-36.8-76.8v-462.4h-51.2c-19.2 0-36.8-16-36.8-36.8s16-36.8 36.8-36.8h817.598c54.4 0 99.2 44.8 99.2 99.2v732.8c0 54.4-44.8 97.6-99.2 97.6zM321.598 56v132.8c0 6.4 4.8 12.8 12.8 12.8h62.4c6.4 0 12.8-4.8 12.8-12.8v-132.8h-88zM480 56v132.8c0 46.4-38.4 84.8-84.802 84.8h-62.4c-46.4 0-84.8-38.4-84.8-84.8v-132.8h-54.4v462.4c0 8 3.2 16 9.6 20.8l142.4 116.8c9.6 8 24 8 33.6 0l142.398-116.8c6.4-4.8 9.604-12.8 9.604-20.8v-462.4h-51.2zM916.796 81.6c0-14.4-11.2-27.2-27.2-27.2h-283.196v464c0 30.4-12.804 57.6-36.804 76.8l-78.396 64v155.2c0 14.4 11.2 27.2 27.2 27.2h372.796c14.4 0 27.204-11.2 27.204-27.2v-732.8h-1.604z" />
<glyph unicode="&#xe940;" glyph-name="apartments-alt-7" d="M951.996 183.983h-41.596v406.4c0 27.2-12.804 52.8-33.604 70.4l-124.796 102.4c-33.6 27.2-81.604 27.2-115.204 0l-124.796-100.8-123.202 100.8c-33.6 27.2-81.6 27.2-115.2 0l-126.4-102.4c-20.8-17.6-33.6-43.2-33.6-70.4v-404.8h-41.6c-19.2 0-36.8-16-36.8-36.8s16-36.8 36.8-36.8h879.998c19.2 0 36.8 16 36.8 36.8s-17.6 35.2-36.8 35.2zM308.798 183.983v72c0 11.2 9.6 20.8 20.8 20.8s22.4-9.6 22.4-20.8v-70.4h-43.2v-1.6zM423.998 183.983v72c0 51.2-41.6 92.8-92.8 92.8s-92.8-41.6-92.8-92.8v-70.4h-52.8v404.8c0 6.4 3.2 11.2 6.4 14.4l126.4 102.4c6.4 6.4 17.6 6.4 24 0l132.802-108.8v-414.4h-51.202zM671.996 183.983v72c0 11.2 9.6 20.8 20.8 20.8s20.8-9.6 20.8-20.8v-70.4h-41.6v-1.6zM787.196 183.983v72c0 51.2-41.596 92.8-92.796 92.8s-92.804-41.6-92.804-92.8v-70.4h-52.8v412.8l132.8 108.8c6.4 6.4 17.6 6.4 24 0l126.4-102.4c4.8-3.2 6.404-9.6 6.404-14.4v-404.8h-51.204v-1.6z" />
<glyph unicode="&#xe941;" glyph-name="apartments-alt-8" d="M904 436.783h-297.6v400c0 46.4-38.4 84.8-84.8 84.8h-78.4c-223.998-1.6-406.398-184-406.398-409.6v-452.8c0-46.4 38.4-84.8 84.8-84.8h783.998c46.4 0 84.8 38.4 84.8 84.8v292.8c-1.6 46.4-40 84.8-86.4 84.8zM534.4 47.983h-414.398c-6.4 0-12.8 4.8-12.8 12.8v451.2c0 185.6 150.4 336 335.998 336h78.4c6.4 0 12.8-4.8 12.8-12.8v-787.2zM739.204 47.983v80c0 16 12.796 27.2 27.196 27.2 16 0 27.2-12.8 27.2-27.2v-80h-54.396zM916.8 59.183c0-6.4-4.8-12.8-12.8-12.8h-36.796v80c0 54.4-44.804 99.2-99.204 99.2s-99.2-44.8-99.2-99.2v-80h-62.4v318.4h297.6c6.4 0 12.8-4.8 12.8-12.8v-292.8zM347.206 630.417h-48c-19.2 0-36.8-16-36.8-36.8s16-36.8 36.8-36.8h48c19.2 0 36.8 16 36.8 36.8s-17.6 36.8-36.8 36.8zM347.206 441.583h-48c-19.2 0-36.8-16-36.8-36.8s16-36.8 36.8-36.8h48c19.2 0 36.8 16 36.8 36.8s-17.6 36.8-36.8 36.8zM347.206 251.166h-48c-19.2 0-36.8-16-36.8-36.8s16-36.8 36.8-36.8h48c19.2 0 36.8 16 36.8 36.8s-17.6 36.8-36.8 36.8z" />
<glyph unicode="&#xe942;" glyph-name="apartments-alt-9" d="M904.004 796.817h-144v44.8c0 46.4-38.4 84.8-84.8 84.8h-328c-46.4 0-84.8-38.4-84.8-84.8v-44.8h-144c-46.4 0-84.8-38.4-84.8-84.8v-528c0-46.4 38.4-84.8 84.8-84.8h144v-44.8c0-46.4 38.4-84.8 84.8-84.8h329.6c46.4 0 84.8 38.4 84.8 84.8v44.8h144c46.4 0 84.8 38.4 84.8 84.8v528c-1.6 46.4-40 84.8-86.4 84.8zM120.004 171.217c-6.4 0-12.8 4.8-12.8 12.8v528c0 6.4 4.8 12.8 12.8 12.8h144v-552h-144v-1.6zM688.004 54.417c0-6.4-4.8-12.8-12.8-12.8h-328c-6.4 0-12.8 4.8-12.8 12.8v787.2c0 6.4 4.8 12.8 12.8 12.8h329.6c6.4-1.6 11.2-6.4 11.2-12.8v-787.2zM916.804 184.017c0-6.4-4.8-12.8-12.8-12.8h-144v553.6h144c6.4 0 12.8-4.8 12.8-12.8v-528zM568.009 692.833h-112c-19.2 0-36.8-16-36.8-36.8s16-36.8 36.8-36.8h112c19.2 0 36.8 16 36.8 36.8s-17.6 36.8-36.8 36.8zM568.009 492.834h-112c-19.2 0-36.8-16-36.8-36.8s16-35.2 36.8-35.2h112c19.2 0 36.8 16 36.8 35.2s-17.6 36.8-36.8 36.8zM568.009 291.251h-112c-19.2 0-36.8-16-36.8-36.8s16-36.8 36.8-36.8h112c19.2 0 36.8 16 36.8 36.8s-17.6 36.8-36.8 36.8z" />
<glyph unicode="&#xe943;" glyph-name="apartments-alt-10" d="M942.4 811.197c-28.8 17.6-64 19.2-92.8 4.8l-188.8-94.4c-32-16-52.8-49.6-52.8-86.4v-20.8h-191.998v190.4c0 33.6-17.6 64-44.8 81.6-28.8 17.6-64 19.2-92.8 4.8l-188.8-94.4c-32-16-52.8-49.6-52.8-86.4v-646.401c0-36.8 30.4-68.8 68.8-68.8h815.998c36.8 0 68.8 30.4 68.8 68.8v665.601c-1.6 33.6-19.196 64-48 81.6zM723.204 67.196h-97.604v196.8c0 19.2-16 36.8-36.8 36.8h-155.2c-19.198 0-36.798-16-36.798-36.8v-195.2h-91.2v449.6c0 12.8 11.2 24.001 24 24.001h48c0 0 0 0 1.6 0s0 0 1.6 0h262.398c0 0 0 0 1.6 0s0 0 1.6 0h54.4c12.8 0 24-11.201 24-24.001v-451.2h-1.596zM470.4 67.196v160h83.2v-160h-83.2zM108.802 710.397c0 9.6 4.8 17.6 12.8 20.8l188.8 94.4c9.6 6.4 19.2 1.6 22.4 0 3.2-3.2 11.2-9.6 11.2-20.8v-190.4h-12.8c-52.8 0-96-43.2-96-96.001v-451.2h-128v643.201h1.6zM916.8 67.196h-121.596v451.2c0 52.801-43.204 96.001-96.004 96.001h-19.2v20.8c0 9.6 4.8 17.6 12.8 20.8l188.8 94.4c11.2 4.8 19.2 1.6 24-1.6 3.2-1.6 11.2-8 11.2-20.8v-660.801z" />
<glyph unicode="&#xe944;" glyph-name="apartments-alt-11" d="M892.796 510.366h-254.396v320.001c0 46.4-38.404 84.8-84.804 84.8h-433.598c-46.4 0-84.8-38.4-84.8-84.8v-764.801c0-46.4 38.4-84.8 84.8-84.8h772.798c52.8 0 96 43.2 96 96v337.6c0 52.8-43.2 96-96 96zM108.798 558.367h193.6v-209.601h-193.6v209.601zM372.798 558.367h193.602v-209.601h-193.602v209.601zM566.4 830.367v-200h-193.602v211.2h180.798c8 0 12.804-4.8 12.804-11.2zM119.998 841.567h180.8v-212.8h-192v201.6c0 6.4 4.8 11.2 11.2 11.2zM108.798 65.566v209.6h193.6v-222.4h-182.4c-6.4 1.6-11.2 6.4-11.2 12.8zM372.798 54.366v220.8h193.602v-222.4h-193.602v1.6zM916.796 76.766c0-12.8-11.2-24-24-24h-254.396v384h254.396c12.8 0 24-11.2 24-24v-336z" />
<glyph unicode="&#xe945;" glyph-name="apartments-alt-12" d="M913.604 43.234h-32v542.399h32c19.2 0 36.8 16 36.8 36.8s-16 36.8-36.8 36.8h-129.6v192h80c19.2 0 36.8 16 36.8 36.8s-16 36.8-36.8 36.8h-702.4c-19.2 0-36.8-16-36.8-36.8s16-36.8 36.8-36.8h80v-193.6h-131.2c-19.2 0-36.8-16-36.8-36.8s16-36.8 36.8-36.8h32v-542.399h-32c-19.2 0-36.8-16-36.8-36.8s16-36.8 36.8-36.8h804.8c19.2 0 36.8 16 36.8 36.8s-17.6 38.4-38.4 38.4zM312.004 851.233h398.4v-193.6h-398.4v193.6zM214.404 585.633h596.8v-542.399h-171.2v200c0 54.4-43.2 97.6-97.6 97.6h-60.8c-54.4 0-97.6-43.2-97.6-97.6v-200h-169.6v542.399zM568.004 43.234h-112v200c0 14.4 11.2 25.6 25.6 25.6h60.8c14.4 0 25.6-11.2 25.6-25.6v-200z" />
<glyph unicode="&#xe946;" glyph-name="apple-brand" d="M676.019 874.667c1.963 0 3.925 0 5.999 0 4.813-52.1-17.886-91.029-45.474-119.221-27.068-27.997-64.132-55.15-124.087-51.029-3.998 51.354 18.739 87.396 46.289 115.522 25.553 26.212 72.393 49.538 117.274 54.728zM853.333 245.649c0-0.593 0-1.114 0-1.668-16.73-51.034-40.593-94.771-69.717-135.36-26.581-36.847-59.162-86.434-117.329-86.434-50.266 0-83.652 32.55-135.168 33.442-54.49 0.887-84.459-27.221-134.282-34.295-5.699 0-11.398 0-16.987 0-36.586 5.333-66.112 34.517-87.622 60.809-63.428 77.696-112.442 178.061-121.561 306.492 0 12.591 0 25.148 0 37.739 3.861 91.917 48.205 166.652 107.147 202.871 31.107 19.258 73.87 35.664 121.487 28.331 20.407-3.185 41.254-10.221 59.532-17.184 17.318-6.703 38.972-18.591 59.49-17.961 13.901 0.407 27.725 7.703 41.737 12.85 41.033 14.925 81.259 32.035 134.281 23.998 63.723-9.703 108.949-38.219 136.896-82.215-53.905-34.553-96.521-86.622-89.242-175.54 6.473-80.772 53.094-128.026 111.339-155.874z" />
<glyph unicode="&#xe947;" glyph-name="apple-brand-1" d="M890.061 603.413c-5.756-4.395-107.345-60.759-107.345-186.086 0-144.964 129.271-196.245 133.137-197.517-0.593-3.127-20.535-70.238-68.156-138.615-42.462-60.169-86.81-120.247-154.27-120.247-67.465 0-84.826 38.588-162.705 38.588-75.895 0-102.882-39.855-164.589-39.855-61.709 0-104.767 55.68-154.272 124.058-57.342 80.294-103.674 205.039-103.674 323.43 0 189.894 125.402 290.608 248.817 290.608 65.577 0 120.243-42.395 161.412-42.395 39.189 0 100.305 44.934 174.908 44.934 28.275 0 129.869-2.539 196.736-96.902zM657.907 780.709c30.857 36.046 52.681 86.060 52.681 136.073 0 6.936-0.593 13.969-1.886 19.635-50.197-1.856-109.922-32.919-145.937-74.044-28.275-31.65-54.665-81.664-54.665-132.361 0-7.621 1.293-15.238 1.886-17.68 3.174-0.587 8.333-1.27 13.495-1.27 45.039 0 101.687 29.696 134.426 69.648z" />
<glyph unicode="&#xe948;" glyph-name="apple-music" d="M171.2 441.634c0 19.2 8 35.2 25.6 44.8-9.6 14.4-22.4 20.8-41.6 22.4-6.4 0-14.4 0-25.6-4.8-9.6-4.8-16-6.4-19.2-6.4-1.6 0-8 1.6-16 6.4-8 6.4-14.4 8-20.8 8-9.6 0-19.2-1.6-27.2-8s-14.4-12.8-20.8-20.8c-4.8-9.6-9.6-25.6-9.6-41.6 0-14.4 1.6-28.8 6.4-43.2s9.6-25.6 16-35.2c6.4-8 12.8-16 16-20.8 6.4-6.4 12.8-9.6 20.8-9.6 4.8 0 9.6 1.6 16 4.8 6.4 1.6 14.4 4.8 20.8 4.8s12.8-1.6 19.2-4.8c8-4.8 14.4-4.8 19.2-4.8 6.4 0 14.4 4.8 20.8 8 1.6 1.6 4.8 4.8 6.4 8 1.6 4.8 6.4 8 8 12.8s4.8 6.4 6.4 9.6c1.6 4.8 4.8 8 6.4 12.8 0 1.6 1.6 4.8 1.6 6.4s1.6 4.8 1.6 6.4c-6.4 1.6-9.6 6.4-14.4 9.6-11.2 6.4-16 19.2-16 35.2zM337.6 398.434l-48 107.2h-36.8v-171.2h30.4v112h1.6l40-89.6h22.4l40 89.6h1.6v-112h33.6v171.2h-38.4l-46.4-107.2zM142.4 528.034c8 9.599 12.8 20.799 12.8 33.599v3.2c-6.4 0-12.8-1.6-19.2-6.4s-12.8-8-16-12.8c-8-9.6-12.8-20.799-12.8-30.399v-3.2c12.8-1.6 24 4.8 35.2 16zM796.8 505.634h35.2v-171.2h-35.2v171.2zM942.4 478.434c20.8 0 33.6-16 33.6-33.6h32v3.2c0 33.6-25.6 62.4-68.8 62.4-44.8 0-72-28.8-72-80v-19.2c0-49.6 27.2-78.4 72-78.4 43.2 0 68.8 28.8 68.8 60.8v4.8h-35.2c0-19.2-9.6-33.6-33.6-33.6s-35.2 16-35.2 49.6v17.6c0 30.4 14.4 46.4 38.4 46.4zM558.4 396.834c0-22.4-14.4-35.2-33.6-35.2-20.8 0-33.6 12.8-33.6 35.2v110.4h-35.2v-113.6c0-36.8 27.2-62.4 68.8-62.4 43.2 0 68.8 25.6 68.8 62.4v113.6h-35.2v-110.4zM713.6 433.634l-25.6 6.4c-14.4 4.8-22.4 9.6-22.4 20.8 0 12.8 9.6 20.8 28.8 20.8s28.8-9.6 30.4-22.4h33.6c0 30.4-25.6 51.2-64 51.2-35.2 0-64-19.2-64-51.2 0-28.8 20.8-43.2 43.2-48l25.6-6.4c16-4.8 25.6-9.6 25.6-20.8 0-12.8-9.6-22.4-30.4-22.4s-33.6 9.6-33.6 25.6h-35.2c0-25.6 16-54.4 65.6-54.4 41.6 0 68.8 20.8 68.8 54.4 0 30.4-20.8 40-46.4 46.4z" />
<glyph unicode="&#xe949;" glyph-name="apple-pay" d="M195.197 600.017c-11.2-12.8-28.8-25.6-48-22.4-1.6 17.6 6.4 38.4 17.6 51.2s32 25.6 48 25.6c1.6-24-6.4-41.6-17.6-54.4zM212.797 569.617c-27.2 1.6-49.6-16-60.8-16-12.8 0-33.6 16-54.4 16-27.2 0-51.2-16-67.2-40-30.4-49.6-8-124.8 19.2-164.8 14.4-20.8 30.4-43.2 52.8-43.2 20.8 0 27.2 12.8 51.2 12.8s32-12.8 54.4-11.2c22.4 0 36.8 20.8 49.6 40 16 22.4 22.4 44.8 22.4 48 0 0-43.2 17.6-43.2 67.2 0 43.2 33.6 60.8 36.8 60.8-20.8 28.8-49.6 30.4-60.8 30.4zM367.997 628.817v-302.4h48v104h65.599c59.2 0 102.4 40 102.4 99.2s-40 99.2-99.2 99.2h-116.799zM415.997 588.817h54.399c40 0 64-22.4 64-60.8s-22.4-60.8-64-60.8h-54.399v121.6zM667.196 321.617c28.8 0 56 16 70.4 38.4h1.6v-36.8h43.2v152c0 43.2-33.6 72-88 72-49.6 0-86.4-27.2-88-67.2h40c1.6 17.6 20.8 32 44.8 32 27.2 0 44.8-12.8 44.8-36.8v-17.6l-59.2-1.6c-54.4-1.6-83.2-25.6-83.2-64-1.6-43.2 30.4-70.4 73.6-70.4zM679.996 358.417c-25.6 0-40 11.2-40 32 0 17.6 16 28.8 44.8 32l51.2 1.6v-17.6c1.6-28.8-24-48-56-48zM838.396 243.217c44.8 0 67.2 17.6 86.4 70.4l83.2 228.8h-48l-56-179.2h-1.6l-56 179.2h-49.6l78.4-220.8-4.8-11.2c-6.4-22.4-17.6-32-38.4-32-1.6 0-11.2 0-12.8 0v-36.8c6.4 1.6 17.6 1.6 19.2 1.6z" />
<glyph unicode="&#xe94a;" glyph-name="app-store" d="M512 718.4l17.6 32c11.2 20.8 36.8 27.2 56 16 20.8-11.2 27.2-36.8 16-56l-176-302.4h126.4c40 0 62.4-48 48-81.6h-372.8c-22.4 0-40 17.6-40 40s17.6 40 40 40h104l132.8 233.6-43.2 72c-11.2 20.8-4.8 44.8 16 56s44.8 4.8 56-16l19.2-33.6zM353.6 281.6l-38.4-67.2c-11.2-20.8-36.8-27.2-56-16-20.8 11.2-27.2 36.8-16 56l28.8 51.2c35.2 11.2 62.4 3.2 81.6-24zM692.8 404.8h105.6c22.4 0 40-17.6 40-40s-17.6-40-40-40h-59.2l40-70.4c11.2-20.8 4.8-44.8-16-56s-44.8-4.8-56 16c-67.2 116.8-116.8 201.6-150.4 260.8s-9.6 116.8 12.8 137.6c28.8-44.8 68.8-115.2 123.2-208zM512 944c-275.2 0-496-220.8-496-496s220.8-496 496-496c275.2 0 496 220.8 496 496s-220.8 496-496 496zM945.6 448c0-236.8-192-433.6-433.6-433.6-236.8 0-433.6 192-433.6 433.6 0 236.8 192 433.6 433.6 433.6 236.8 0 433.6-192 433.6-433.6z" />
<glyph unicode="&#xe94b;" glyph-name="arc" d="M912 931.167h-51.204c-44.796 0-80-33.6-83.196-76.8-195.2-30.4-358.402-116.8-484.802-259.2-140.8-161.601-179.2-342.401-188.8-412.801-43.2-3.2-76.8-40-76.8-83.2v-51.2c0-46.4 38.4-83.2 83.2-83.2h51.2c46.4 0 83.2 38.4 83.2 83.2v51.2c0 41.6-30.4 75.2-68.8 83.2 11.2 67.2 48 225.6 171.2 364.801 113.602 128 254.402 204.8 430.402 233.6 6.4-38.4 41.6-68.8 83.196-68.8h51.204c46.4 0 83.2 38.4 83.2 83.2v51.2c0 46.4-36.8 84.8-83.2 84.8zM174.398 49.566c0-6.4-4.8-12.8-12.8-12.8h-49.6c-6.4 0-12.8 4.8-12.8 12.8v51.2c0 4.8 6.4 11.2 12.8 11.2h51.2c6.4 0 12.8-4.8 12.8-12.8v-49.6h-1.6zM924.796 796.767c0-6.4-4.796-12.8-12.796-12.8h-51.204c-6.396 0-12.796 4.8-12.796 12.8v49.6c0 6.4 4.796 12.8 12.796 12.8h51.204c6.4 0 12.796-4.8 12.796-12.8v-49.6z" />
<glyph unicode="&#xe94c;" glyph-name="arch" d="M943.996 644.8c19.2 0 36.8 16 36.8 36.8s-16 36.8-36.8 36.8h-33.596v43.2c0 48-38.404 86.4-86.404 86.4h-623.998c-48 0-86.4-38.4-86.4-86.4v-43.2h-33.6c-19.2 0-36.8-16-36.8-36.8s16-36.8 36.8-36.8h33.6v-524.8h-16c-19.2 0-36.8-16-36.8-36.8s16-36.8 36.8-36.8h827.198c19.2 0 36.8 16 36.8 36.8s-16 36.8-36.8 36.8h-14.396v524.8h33.596zM185.598 761.6c0 8 6.4 14.4 14.4 14.4h623.998c8 0 14.404-6.4 14.404-14.4v-43.2h-652.802v43.2zM569.596 120h-131.196v235.2c0 40 33.6 73.6 73.6 73.6s73.596-33.6 73.596-73.6v-235.2h-16zM838.4 120h-180.804v235.2c0 80-65.6 145.6-145.596 145.6-80 0-145.602-65.6-145.602-145.6v-235.2h-180.8v524.8h654.398v-524.8h-1.596z" />
<glyph unicode="&#xe94d;" glyph-name="archive" d="M907.2 891.167h-790.402c-49.6 0-89.6-40-89.6-89.6v-97.6c0-46.4 35.2-84.8 81.6-88v-513.601c0-54.4 43.2-97.6 97.6-97.6h609.602c54.4 0 97.6 43.2 97.6 97.6v513.601c44.8 3.2 81.6 41.6 81.6 88v97.6c1.6 49.6-38.4 89.6-88 89.6zM816 76.766h-608.002c-14.4 0-25.6 11.2-25.6 25.6v513.601h660.802v-513.601c0-14.4-12.8-25.6-27.2-25.6zM924.796 703.967c0-9.6-7.996-17.6-17.596-17.6h-790.402c-9.6 0-17.6 8-17.6 17.6v97.6c0 9.6 8 17.6 17.6 17.6h790.402c9.6 0 17.596-8 17.596-17.6v-97.6zM643.2 483.166h-262.4c-36.8 0-68.8-30.4-68.8-68.8v-99.2c0-36.8 30.4-68.8 68.8-68.8h262.4c36.8 0 68.8 30.4 68.8 68.8v100.8c-1.6 36.8-32 67.2-68.8 67.2zM638.4 321.566h-252.8v91.2h254.4v-91.2h-1.6z" />
<glyph unicode="&#xe94e;" glyph-name="archway" d="M884.796 683.233v89.6c0 52.8-43.2 96-96 96h-116.8c-52.8 0-96-43.2-96-96v-89.6h-126.4v89.6c0 52.8-43.2 96-96 96h-116.8c-52.8 0-96-43.2-96-96v-89.6c-52.8-1.6-94.4-43.2-94.4-96v-462.399c0-52.8 43.2-96 96-96h180.8c52.8 0 96 43.2 96 96v110.4c0 51.2 41.6 94.4 94.4 94.4 25.6 0 49.6-9.6 67.2-27.2s27.2-41.6 27.2-67.2v-110.4c0-52.8 43.2-96 96-96h180.8c52.8 0 96 43.2 96 96v460.799c0 52.8-43.2 96-96 97.6zM646.396 772.833c0 12.8 11.2 24 24 24h116.8c12.8 0 24-11.2 24-24v-89.6h-164.8v89.6zM211.196 772.833c0 12.8 11.2 24 24 24h116.8c12.8 0 24-11.2 24-24v-89.6h-164.8v89.6zM908.796 123.234c0-12.8-11.2-24-24-24h-182.4c-12.8 0-24 11.2-24 24v110.4c0 44.8-17.6 86.4-48 116.8-32 32-73.6 48-116.8 48-91.2 0-166.4-75.2-166.4-166.4v-110.4c0-12.8-11.2-24-24-24h-182.4c-12.8 0-24 11.2-24 24v463.999c0 12.8 11.2 24 24 24h742.4c12.8 0 24-11.2 24-24v-462.399h1.6z" />
<glyph unicode="&#xe94f;" glyph-name="arrow-align-h" d="M512 665.667c-19.2 0-35.2-16-35.2-35.2v-363.198c0-19.2 16-35.2 35.2-35.2s35.2 16 35.2 35.2v363.198c0 19.2-16 35.2-35.2 35.2zM371.198 483.251h-217.6l123.2 119.999c14.4 14.4 14.4 36.8 0 51.2s-36.8 14.4-51.2 0l-187.2-180.799c-6.4-6.4-11.2-16-11.2-25.6s3.2-19.2 11.2-25.6l188.8-182.4c6.4-6.4 16-9.6 25.6-9.6s19.2 3.2 25.6 11.2c14.4 14.4 12.8 36.8-1.6 51.2l-124.8 120h219.2c19.2 0 35.2 16 35.2 35.2s-16 35.2-35.2 35.2zM985.596 473.634l-188.8 182.399c-14.4 14.4-36.8 14.4-51.2 0s-14.4-36.8 0-51.2l123.2-119.999h-216c-19.2 0-35.2-16-35.2-35.2s16-35.2 35.2-35.2h219.2l-124.8-120c-14.4-14.4-14.4-36.8-1.6-51.2 6.4-8 16-11.2 25.6-11.2s17.6 3.2 25.6 9.6l187.2 180.8c6.4 6.4 11.2 16 11.2 25.6s-3.2 17.6-9.6 25.6z" />
<glyph unicode="&#xe950;" glyph-name="arrow-down" d="M873.604 419.166c-14.4 14.4-36.8 14.4-51.2 0l-273.6-268.8v681.601c0 19.2-16 35.2-35.2 35.2s-35.2-16-35.2-35.2v-683.201l-276.8 272c-14.4 14.4-36.8 14.4-51.2 0s-14.4-36.8 0-51.2l336-331.2c6.4-6.4 16-9.6 25.6-9.6s17.6 3.2 25.6 9.6l336 331.2c14.4 12.8 14.4 36.8 0 49.6z" />
<glyph unicode="&#xe951;" glyph-name="arrow-down-circle" d="M644.8 448l-97.6-96v276.8c0 19.2-16 35.2-35.2 35.2s-35.2-16-35.2-35.2v-276.8l-97.602 96c-14.4 14.4-36.8 14.4-51.2 0s-14.4-36.8 0-51.2l158.402-156.8c6.4-6.4 16-9.6 25.6-9.6s17.6 3.2 25.6 9.6l158.4 156.8c14.4 14.4 14.4 36.8 0 51.2s-36.8 14.4-51.2 0zM512 932.833c-267.198 0-483.198-217.6-483.198-484.799s216-484.8 483.198-484.8c267.204 0 483.204 217.6 483.204 484.8s-216 484.799-483.204 484.799zM512 35.234c-227.198 0-412.798 185.6-412.798 412.8s185.6 412.799 412.798 412.799c227.204 0 412.804-185.6 412.804-412.799s-185.6-412.8-412.804-412.8z" />
<glyph unicode="&#xe952;" glyph-name="arrow-expand-alt" d="M571.2 478.366c-9.6 0-19.2 3.2-25.6 11.2-14.4 14.4-14.4 36.8 0 51.201l320 320h-171.196c-19.2 0-35.204 16-35.204 35.2s16.004 35.2 35.204 35.2h259.196c19.2 0 35.2-16 35.2-35.2v-244.8c0-19.2-16-35.2-35.2-35.2s-35.2 16-35.2 35.2v158.4l-320-320.001c-8-6.4-17.6-11.2-27.2-11.2zM329.598-35.251h-259.2c-19.2 0-35.2 16-35.2 35.2v244.8c0 19.2 16 35.2 35.2 35.2s35.2-16 35.2-35.2v-156.8l320 320c14.402 14.4 36.802 14.4 51.202 0s14.4-36.8 0-51.2l-320.002-320h171.2c19.2 0 35.2-16 35.2-35.2s-14.4-36.8-33.6-36.8z" />
<glyph unicode="&#xe953;" glyph-name="arrow-left" d="M896.004 483.2h-683.2l272 276.8c14.4 14.4 14.4 36.8 0 51.2s-36.8 14.4-51.2 0l-331.2-336c-14.4-14.4-14.4-36.8 0-51.2l331.2-336c6.4-6.4 16-11.2 25.6-11.2s17.6 3.2 25.6 9.6c14.4 14.4 14.4 36.8 0 51.2l-270.4 273.6h681.6c19.2 0 35.2 16 35.2 35.2 0 20.8-16 36.8-35.2 36.8z" />
<glyph unicode="&#xe954;" glyph-name="arrow-left-circle" d="M692.8 483.149h-276.798l95.998 97.601c14.4 14.4 14.4 36.8 0 51.2s-36.8 14.4-51.2 0l-155.198-158.401c-14.4-14.4-14.4-36.8 0-51.2l155.198-158.4c6.4-6.4 16-11.2 25.6-11.2s17.6 3.2 25.6 9.6c14.4 14.4 14.4 36.8 0 51.2l-95.998 97.6h276.798c19.2 0 35.2 16 35.2 35.2 1.6 20.8-14.4 36.8-35.2 36.8zM512 931.167c-267.202 0-484.802-216-484.802-483.201s217.6-483.2 484.802-483.2c267.196 0 484.796 216 484.796 483.2s-217.6 483.201-484.796 483.201zM512 35.166c-227.202 0-412.802 185.6-412.802 412.8s185.6 412.801 412.802 412.801c227.196 0 412.796-185.6 412.796-412.801s-185.6-412.8-412.796-412.8z" />
<glyph unicode="&#xe955;" glyph-name="arrow-right" d="M921.6 473.617l-331.2 336c-14.4 14.4-36.8 14.4-51.2 0s-14.4-36.8 0-51.2l268.8-273.6h-679.998c-19.2 0-35.2-16-35.2-35.2s16-36.8 35.2-36.8h683.198l-272-276.8c-14.4-14.4-14.4-36.8 0-51.2 6.4-6.4 16-9.6 25.6-9.6s19.2 3.2 25.6 11.2l331.2 336c14.4 14.4 14.4 36.8 0 51.2z" />
<glyph unicode="&#xe956;" glyph-name="arrow-right-circle" d="M563.2 631.95c-14.4 14.4-36.8 14.4-51.2 0s-14.4-36.8 0-51.2l96-97.601h-276.8c-19.2 0-35.2-16-35.2-35.2s16-35.2 35.2-35.2h276.8l-96-97.6c-14.4-14.4-14.4-36.8 0-51.2 6.4-6.4 16-9.6 25.6-9.6s19.2 3.2 25.6 11.2l156.8 158.4c14.4 14.4 14.4 36.8 0 51.2l-156.8 156.801zM512 931.167c-267.202 0-484.802-216-484.802-483.201s217.6-483.2 484.802-483.2c267.196 0 484.796 216 484.796 483.2s-217.6 483.201-484.796 483.201zM512 35.166c-227.202 0-412.802 185.6-412.802 412.8s185.6 412.801 412.802 412.801c227.196 0 412.796-185.6 412.796-412.801s-185.6-412.8-412.796-412.8z" />
<glyph unicode="&#xe957;" glyph-name="arrows-horizontal" d="M985.604 473.566l-163.2 164.801c-14.4 14.4-36.8 14.4-51.2 0s-14.4-36.8 0-51.2l102.4-104.001h-724.8l102.4 104.001c14.4 14.4 14.4 36.8 0 51.2s-36.8 14.4-51.2 0l-161.6-164.801c-14.4-14.4-14.4-36.8 0-51.2l163.2-164.8c6.4-6.4 16-11.2 25.6-11.2s17.6 3.2 25.6 9.6c14.4 14.4 14.4 36.8 0 51.2l-102.4 104h723.2l-102.4-104c-14.4-14.4-14.4-36.8 0-51.2 6.4-6.4 16-9.6 25.6-9.6s19.2 3.2 25.6 11.2l163.2 164.8c14.4 14.4 14.4 36.8 0 51.2z" />
<glyph unicode="&#xe958;" glyph-name="arrow-target-1" d="M777.6 585.583h-22.4c-19.2 0-36.8-16-36.8-36.8s16-36.8 36.8-36.8h22.4c12.8 0 22.4-9.6 22.4-22.4v-192h-576v192c0 12.8 9.6 22.4 22.4 22.4h12.8c19.2 0 36.8 16 36.8 36.8s-16 36.8-36.8 36.8h-12.8c-51.2 0-94.4-41.6-94.4-94.4v-302.4c0-54.4 43.2-97.6 97.6-97.6h169.6l-8-54.4h-67.2c-19.2 0-36.8-16-36.8-36.8s16-36.8 36.8-36.8h337.6c19.2 0 36.8 16 36.8 36.8s-16 36.8-36.8 36.8h-67.2l-8 54.4h169.6c54.4 0 97.6 43.2 97.6 97.6v302.4c-1.6 51.2-43.2 94.4-96 94.4zM540.8 35.183h-56l8 54.4h40l8-54.4zM774.4 163.183h-524.8c-14.4 0-25.6 11.2-25.6 25.6v38.4h576v-38.4c0-14.4-11.2-25.6-25.6-25.6zM528 435.183c104 0 187.2 84.8 187.2 187.2 0 19.2-16 36.8-36.8 36.8s-36.8-16-36.8-36.8c0-64-51.2-115.2-115.2-115.2s-115.198 51.2-115.198 115.2c0 64 51.198 115.2 115.198 115.2 11.2 0 22.4-1.6 33.6-4.8 19.2-6.4 38.4 4.8 44.8 24s-4.8 38.4-24 44.8c-17.6 4.8-35.2 8-52.8 8-103.998 0-187.198-84.8-187.198-187.2s83.2-187.2 187.198-187.2zM520 662.392c-14.4-12.8-16-35.2-3.2-51.2 6.4-8 17.6-12.8 27.2-12.8 8 0 17.6 3.2 24 9.6l184 163.2h84.8c19.2 0 36.8 16 36.8 36.8s-16 36.8-36.8 36.8h-60.8v51.2c0 19.2-16 36.8-36.8 36.8s-35.2-17.6-35.2-36.8v-70.4l-184-163.2z" />
<glyph unicode="&#xe959;" glyph-name="arrow-top-left" d="M782.4 139.2c-9.6 0-19.2 3.2-25.6 11.2l-481.6 481.6-3.2-384c0-19.2-16-36.8-36.8-35.2-19.2 0-35.2 16-35.2 36.8l4.8 470.4c0 19.2 16 35.2 35.2 35.2l472 4.8c19.2 0 35.2-16 35.2-35.2s-16-36.8-35.2-36.8l-387.2-3.2 483.2-483.2c14.4-14.4 14.4-36.8 0-51.2-6.4-6.4-16-11.2-25.6-11.2z" />
<glyph unicode="&#xe95a;" glyph-name="arrow-top-right" d="M240.004 139.234c-9.6 0-19.2 3.2-25.6 11.2-14.4 14.4-14.4 36.8 0 51.2l484.8 484.799h-387.2c-19.2 0-35.2 16-35.2 35.2s16 35.2 35.2 35.2h472c19.2 0 35.2-16 35.2-35.2v-475.199c0-19.2-16-35.2-35.2-35.2s-35.2 16-35.2 35.2v385.599l-483.2-483.199c-6.4-6.4-16-9.6-25.6-9.6z" />
<glyph unicode="&#xe95b;" glyph-name="arrow-up" d="M873.604 526.417l-336 331.2c-14.4 14.4-36.8 14.4-51.2 0l-336-331.2c-14.4-14.4-14.4-36.8 0-51.2s36.8-14.4 51.2 0l273.6 268.8v-680c0-19.2 16-35.2 35.2-35.2s36.8 16 36.8 35.2v683.2l276.8-272c6.4-6.4 16-9.6 25.6-9.6s19.2 3.2 25.6 11.2c12.8 12.8 12.8 36.8-1.6 49.6z" />
<glyph unicode="&#xe95c;" glyph-name="arrow-up-circle" d="M537.6 654.45c-14.4 14.4-36.8 14.4-51.2 0l-158.402-155.199c-14.4-14.4-14.4-36.8 0-51.2 6.4-6.4 16-11.2 25.6-11.2s17.6 3.2 25.6 9.6l97.602 95.999v-276.799c0-19.2 16-35.2 35.2-35.2s35.2 16 35.2 35.2v278.399l97.6-95.999c14.4-14.4 36.8-14.4 51.2 0s14.4 36.8 0 51.2l-158.4 155.199zM512 932.833c-267.198 0-483.198-217.6-483.198-484.799s216-484.8 483.198-484.8c267.204 0 483.204 217.6 483.204 484.8s-216 484.799-483.204 484.799zM512 35.234c-227.198 0-412.798 185.6-412.798 412.8s185.6 412.799 412.798 412.799c227.204 0 412.804-185.6 412.804-412.799s-185.6-412.8-412.804-412.8z" />
<glyph unicode="&#xe95d;" glyph-name="atlassian" d="M308.809 484.783c-16 16-38.4 16-48-4.8l-241.599-484.8c-9.6-17.6 4.8-43.2 27.2-43.2h337.6c11.2 0 22.4 6.4 27.2 16 71.999 152 27.199 380.8-102.4 516.8zM488.009 927.983c-233.599-374.4-16-673.6 126.4-960 4.8-9.6 16-16 27.2-16h337.6c22.4 0 36.8 22.4 27.2 43.2 0 0-452.8 910.4-464 932.8-14.4 20.8-41.6 20.8-54.4 0z" />
<glyph unicode="&#xe95e;" glyph-name="atm" d="M902.4 747.209h-780.8c-51.2 0-92.8-41.6-92.8-92.8v-412.8c0-51.2 41.6-92.8 92.8-92.8h782.4c51.2 0 92.8 41.6 92.8 92.8v412.8c-1.6 51.2-43.2 92.8-94.4 92.8zM924.8 241.609c0-11.2-9.6-20.8-20.8-20.8h-782.4c-11.2 0-20.8 9.6-20.8 20.8v412.8c0 11.2 9.6 20.8 20.8 20.8h782.4c11.2 0 20.8-9.6 20.8-20.8v-412.8zM308.799 579.209h-104c-19.2 0-35.2-16-35.2-35.2v-201.6c0-19.2 16-35.2 35.2-35.2s35.2 16 35.2 35.2v76.8h32v-76.8c0-19.2 16-35.2 35.2-35.2s35.2 16 35.2 35.2v200c3.2 20.8-12.8 36.8-33.6 36.8zM241.599 507.209h32v-17.6h-32v17.6zM856 575.99c-14.4 4.8-30.4 1.6-40-9.6l-64-70.399-64 71.999c-9.6 11.2-25.6 14.4-40 9.6s-22.4-19.2-22.4-33.6v-201.599c0-19.2 16-35.2 35.2-35.2s35.2 16 35.2 35.2v108.8l28.8-32c6.4-8 16-11.2 27.2-11.2 9.6 0 19.2 4.8 27.2 11.2l28.8 32v-108.8c0-19.2 16-35.2 35.2-35.2s35.2 16 35.2 35.2v199.999c0 16-8 28.8-22.4 33.6zM564.8 579.209h-153.6c-19.2 0-35.2-16-35.2-35.2s16-35.2 35.2-35.2h40v-166.4c0-19.2 16-35.2 35.2-35.2s36.8 16 36.8 35.2v164.8h40c19.2 0 35.2 16 35.2 35.2s-12.8 36.8-33.6 36.8z" />
<glyph unicode="&#xe95f;" glyph-name="atm-alt" d="M912 913.583h-800c-46.4 0-83.2-38.4-83.2-83.2v-763.2c0-46.4 38.4-83.2 83.2-83.2h800c46.4 0 83.2 38.4 83.2 83.2v761.6c0 46.4-36.8 84.8-83.2 84.8zM99.2 67.183v761.6c0 6.4 4.8 12.8 12.8 12.8h545.6v-787.2h-545.6c-6.4 0-12.8 4.8-12.8 12.8zM924.8 67.183c0-6.4-4.8-12.8-12.8-12.8h-182.4v787.2h182.4c6.4 0 12.8-4.8 12.8-12.8v-761.6zM513.6 782.375h-259.201c-46.4 0-83.2-38.4-83.2-83.2v-259.2c0-46.4 38.4-83.2 83.2-83.2h259.201c46.4 0 83.2 38.4 83.2 83.2v259.2c0 46.4-36.8 83.2-83.2 83.2zM524.8 439.974c0-6.4-4.8-12.8-12.8-12.8h-257.601c-6.4 0-12.8 4.8-12.8 12.8v259.2c0 6.4 4.8 12.8 12.8 12.8h259.201c6.4 0 12.8-4.8 12.8-12.8v-259.2h-1.6zM239.999 308.791h-33.6c-19.2 0-35.2-16-35.2-35.2s16-35.2 35.2-35.2h33.6c19.2 0 35.2 16 35.2 35.2s-16 35.2-35.2 35.2zM400 308.791h-32c-19.2 0-35.2-16-35.2-35.2s16-35.2 35.2-35.2h32c19.2 0 35.2 16 35.2 35.2s-14.4 35.2-35.2 35.2zM239.999 180.791h-33.6c-19.2 0-35.2-16-35.2-35.2s16-35.2 35.2-35.2h33.6c19.2 0 35.2 16 35.2 35.2s-16 35.2-35.2 35.2zM400 180.791h-32c-19.2 0-35.2-16-35.2-35.2s16-35.2 35.2-35.2h32c19.2 0 35.2 16 35.2 35.2s-14.4 35.2-35.2 35.2zM560 308.791h-33.6c-19.2 0-35.2-16-35.2-35.2s16-35.2 35.2-35.2h33.6c19.2 0 35.2 16 35.2 35.2s-16 35.2-35.2 35.2zM560 180.791h-33.6c-19.2 0-35.2-16-35.2-35.2s16-35.2 35.2-35.2h33.6c19.2 0 35.2 16 35.2 35.2s-16 35.2-35.2 35.2z" />
<glyph unicode="&#xe960;" glyph-name="atm-alt-1" d="M916.8 761.583h-128c-68.8 96-177.6 152-296 152s-228.8-56-296-152h-89.6c-52.8 0-96-43.2-96-96v-348.8c0-52.8 43.2-96 96-96h153.6c94.4-120 206.4-200 211.2-203.2 6.4-4.8 12.8-6.4 20.8-6.4s14.4 1.6 20.8 6.4c4.8 3.2 115.2 83.2 211.2 203.2h193.6c52.8 0 96 43.2 96 96v350.4c-3.2 52.8-44.8 94.4-97.6 94.4zM492.8 843.183c76.8 0 147.2-28.8 201.6-80h-403.2c52.8 49.6 124.8 80 201.6 80zM492.8 94.383c-28.8 22.4-83.2 68.8-137.6 128h275.2c-54.4-59.2-108.8-105.6-137.6-128zM940.8 318.383c0-12.8-11.2-24-24-24h-809.6c-12.8 0-24 11.2-24 24v348.8c0 12.8 11.2 24 24 24h806.4c12.8 0 24-11.2 24-24v-348.8h3.2zM289.6 627.167h-107.2c-19.2 0-35.2-16-35.2-35.2v-209.601c0-19.2 16-35.2 35.2-35.2s35.2 16 35.2 35.2v80h35.2v-80c0-19.2 16-35.2 35.2-35.2s35.2 16 35.2 35.2v209.601c1.6 19.2-14.4 35.2-33.6 35.2zM217.6 555.167h35.2v-20.8h-35.2v20.8zM854.4 625.59c-14.4 4.8-30.4 1.6-40-9.6l-67.2-75.2-67.2 75.2c-9.6 11.2-25.6 14.4-40 9.6s-22.4-19.2-22.4-33.6v-209.599c0-19.2 16-35.2 35.2-35.2s35.2 16 35.2 35.2v115.2l32-35.2c6.4-8 16-11.2 27.2-11.2 9.6 0 19.2 4.8 27.2 11.2l32 35.2v-115.2c0-19.2 16-35.2 35.2-35.2s35.2 16 35.2 35.2v209.599c1.6 14.4-8 27.2-22.4 33.6zM555.2 627.167h-158.398c-19.2 0-35.2-16-35.2-35.2s16-35.2 35.2-35.2h43.198v-172.801c0-19.2 16-35.2 35.2-35.2s35.2 16 35.2 35.2v171.201h43.2c19.2 0 35.2 16 35.2 35.2s-14.4 36.8-33.6 36.8z" />
<glyph unicode="&#xe961;" glyph-name="atom" d="M931.204 448.013c19.2 38.4 35.2 76.8 44.8 115.198 36.8 128 20.8 235.2-46.4 302.4-91.2 91.2-251.2 86.4-417.6 1.6-38.4 19.2-76.8 35.2-113.6 44.8-128 36.8-235.2 20.8-302.4-46.4s-84.8-174.4-46.4-302.4c11.2-38.398 25.6-76.798 44.8-113.598-86.4-168-91.2-328 0-419.2 43.2-43.2 105.6-65.6 177.6-65.6 38.4 0 81.6 6.4 124.8 19.2 38.4 11.2 76.8 25.6 115.2 44.8 38.4-19.2 76.8-35.2 115.2-44.8 44.8-12.8 86.4-19.2 124.8-19.2 72 0 134.4 22.4 177.6 65.6 67.2 67.2 84.8 174.4 46.4 302.4-9.6 38.4-25.6 76.8-44.8 115.2zM646.404 843.211c38.4 11.2 73.6 16 105.6 16 52.8 0 96-16 126.4-44.8 48-48 57.6-131.2 28.8-232-4.8-19.2-12.8-38.4-20.8-57.598-36.8 57.598-81.6 113.598-134.4 164.798-51.2 51.2-107.2 97.6-164.8 134.4 20.8 8 40 14.4 59.2 19.2zM849.604 448.013c-36.8-65.6-86.4-131.2-147.2-190.4s-124.8-110.4-190.4-147.2c-65.6 36.8-131.2 86.4-190.4 147.2-59.2 59.2-110.4 124.8-147.2 190.4 36.8 65.6 86.4 131.198 147.2 190.398 59.2 59.2 124.8 110.4 190.4 147.2 65.6-36.8 131.2-86.4 190.4-147.2 60.8-59.2 110.4-124.798 147.2-190.398zM116.804 582.411c-30.4 102.4-19.2 184 28.8 232 30.4 30.4 73.6 44.8 126.4 44.8 32 0 67.2-4.8 105.6-16 19.2-4.8 38.4-11.2 57.6-19.2-56-36.8-112-81.6-164.8-134.4s-97.6-108.8-134.4-164.798c-8 19.198-14.4 38.398-19.2 57.598zM377.604 52.813c-102.4-28.8-184-19.2-232 28.8s-57.6 131.2-28.8 232c4.8 19.2 11.2 38.4 19.2 57.6 36.8-57.6 81.6-113.6 134.4-164.8 51.2-51.2 107.2-97.6 164.8-134.4-19.2-8-38.4-14.4-57.6-19.2zM878.404 81.613c-48-48-131.2-57.6-232-28.8-19.2 4.8-38.4 12.8-57.6 20.8 57.6 36.8 113.6 81.6 164.8 134.4s97.6 107.2 134.4 164.8c8-19.2 14.4-38.4 20.8-57.6 28.8-104 17.6-185.6-30.4-233.6zM512.004 574.417c-70.4 0-126.4-57.6-126.4-126.4s57.6-126.4 126.4-126.4c68.8 0 126.4 57.6 126.4 126.4s-56 126.4-126.4 126.4zM512.004 393.617c-30.4 0-54.4 24-54.4 54.4s24 54.4 54.4 54.4c30.4 0 54.4-24 54.4-54.4s-24-54.4-54.4-54.4z" />
</font>
</defs>
</svg>
